Loading...
Error

20 000 дней на Земле / 20,000 Days on Earth (Ян Форсис, Джейн Поллард) [2014 г., документальный, драма, музыка, BDRip] VO [Lord32x]

Статистика раздачи
Размер:  1,46 GB   |    Зарегистрирован:  2 года 6 месяцев   |    Скачан:  19 раз

Полного источника не было: 1 год 2 месяца

Сидов:  0  |  0 KB/s  ]   Личеров:  0  |  0 KB/s  ]

* - сиды/пиры с внешних источников

   
 
Автор Сообщение

Паукан Пол:Муж

23-Янв-2015 13:12

20 000 дней на Земле / 20,000 Days on Earth


Название: 20 000 дней на Земле
Оригинальное название: 20,000 Days on Earth
Год выхода: 2014
Жанр: Документальный, драма, музыка
Режиссёр: Ян Форсис, Джейн Поллард
В главных ролях: Ник Кейв, Сьюзи Бик, Уоррен Эллис, Дариан Лидер, Рэй Уинстон, Бликса Баргельд, Кайли Миноуг, Артур Кейв, Эрл Кейв, Томас Уилдлер, Мартин Кэйси, Конуэй Сэвэдж, Бэрри Адамсон, Кирк Лэйк, Лиззи Филипс
Описание: Писатель и музыкант Ник Кейв отмечает свой 20000-й день на планете Земля… Прожить с ним целый день. День, перенасыщенный событиями, музыкой и, главное, воспоминаниями. Воспоминаниями о том, что было ли на самом деле? Кейву удалось действительно стать той самой рок-звездой, о которой он говорит — недосягаемой, сильной. Это уже не человек. Это чистой воды миф. Стоит ли его разрушать? Стоит ли пытаться отделить правду от вымысла? Музыка окутывает тебя, словно кокон, заглушая посторонние звуки и мысли, только проповедь звучит и звучит в голове, как будто монотонная, но вместе с тем прекрасная. Перед глазами сменяются грациозно кадры, ты сидишь в своём кресле, и действительно молишься (not to God above, but to you), чтобы это не заканчивалось. Не сейчас…
Сэмпл
Страна: Великобритания
Студия: British Film Institute (BFI), Corniche Pictures, Film4, Pulse Films
Продолжительность: 01:33:21
Перевод: Любительский одноголосый (Lord32x)
Кодек: XviD
Качество: BDRip
Видео: 1852 Кбит/с, 720x304
Звук: AC3, 384 kb/s (6 ch)
Субтитры: Нет
Complete name : 20.000.Days.on.Earth.2014.HDRip.1500MB.GIPERWAREZ.avi
Format : AVI
Format/Info : Audio Video Interleave
File size : 1.46 GiB
Duration : 1h 33mn
Overall bit rate : 2 246 Kbps
Writing application : VirtualDubMod 1.5.10.3 | www.virtualdub-fr.org || (build 2550/release)
Writing library : VirtualDubMod build 2550/release
Video #0
ID : 0
Format : MPEG-4 Visual
Format profile : Advanced Simple@L5
Format settings, BVOP : 1
Format settings, QPel : No
Format settings, GMC : No warppoints
Format settings, Matrix : Default (H.263)
Codec ID : XVID
Codec ID/Hint : XviD
Duration : 1h 33mn
Bit rate : 1 852 Kbps
Width : 720 pixels
Height : 304 pixels
Display aspect ratio : 2.35:1
Frame rate : 25.000 fps
Color space : YUV
Chroma subsampling : 4:2:0
Bit depth : 8 bits
Scan type : Progressive
Compression mode : Lossy
Bits/(Pixel*Frame) : 0.338
Stream size : 1.21 GiB (82%)
Writing library : XviD 1.2.1 (UTC 2008-12-04)
Audio #1
ID : 1
Format : AC-3
Format/Info : Audio Coding 3
Mode extension : CM (complete main)
Format settings, Endianness : Big
Codec ID : 2000
Duration : 1h 33mn
Bit rate mode : Constant
Bit rate : 384 Kbps
Channel(s) : 6 channels
Channel positions : Front: L C R, Side: L R, LFE
Sampling rate : 48.0 KHz
Bit depth : 16 bits
Compression mode : Lossy
Stream size : 256 MiB (17%)
Alignment : Split accross interleaves
Interleave, duration : 40 ms (1.00 video frame)
Interleave, preload duration : 500 ms
pic pic pic
Для увеличения картинки щелкните мышкой по превью

Этот торрент недоступен для скачивания без регистрации, однако доступен по публичной magnet-ссылке (источники с публичных трекеров). Перед использованием ссылки прочтите, пожалуйста Пользовательское соглашение, а также как можно дольше оставайтесь на раздаче! Для того, чтобы скачать сам торрент-файл (который видит больше источников), а также для того, чтобы поблагодарить релизера, вам необходимо зарегистрироваться. Если регистрироваться лень - вы можете также попробовать скачать релиз по нашим партнерским ссылкам ниже.

[underverse.su].t48600.torrent
Трекер: Зарегистрирован   [ 23.01.2015 13:12 ]  

Статус: проверено (by Паукан at 23.01.2015 13:13)
Поблагодарили: 1 человек
Тип торрента: публичный - доступные источники с открытых трекеров: 
Размер: 1,46 GB (занимает 0,33 DVDR, для записи нужно 1 болванка DVDR/RW)
 
 

Яндекс.Метрика powered by Sphinx


В Н И М А Н И Е
Сайт не распространяет и не хранит электронные версии произведений, а лишь бесплатно и без коммерческой выгоды (не требуя взамен платы,
SMS и т.д.) предоставляет доступ к создаваемому пользователями каталогу ссылок на торрент-файлы, которые содержат только списки хеш-сумм.
Убедительная просьба с жалобами обращаться напрямую к пользователю, разместившему торрент файл.

Вверх