Loading...
Error

Последняя остановка / Don't Blink (Трэвис Оутс) [2014 г., ужасы, фантастика, детектив, WEB-DLRip] DVO (DeadSno & den904)

Статистика раздачи
Размер:  743 MB   |    Зарегистрирован:  1 год 10 месяцев   |    Скачан:  20 раз

Полного источника не было: 1 год 1 месяц

Сидов:  0  |  0 KB/s  ]   Личеров:  0  |  0 KB/s  ]

* - сиды/пиры с внешних источников

   
 
Автор Сообщение

Паукан Пол:Муж

23-Янв-2015 12:07

Последняя остановка / Don't Blink


Год выпуска: 2014
Страна: США
Жанр: ужасы, фантастика, детектив
Продолжительность: 01:32:17
Перевод: Двуголосый закадровый, любительский (DeadSno & den904)
Субтитры: отсутствуют

Режиссер-постановщик: Трэвис Оутс
Продюссер: Карл Лукас, Алан Тревер, Зак Уорд
Сценарий: Трэвис Оутс

Бюджет: 18 сентября 2014
Премьера в мире: 18 сентября 2014

В главных ролях: Мена Сувари, Брайан Остин Грин, Джоэнн Келли, Фиона Губелманн, Роберт Пикардо, Зак Уорд, Девид де Латур, Лейф Гантвурт, Эмели О’Хара, Кертисс Фрисл

Описание: Десять туристов прибывают на расположенную высоко в горах лыжную базу, но обнаруживают её совершенно покинутой. Поскольку у них не осталось топлива на обратный путь, героям приходится остаться здесь и попытаться выяснить, куда же подевались все сотрудники и посетители курорта. Со временем они понимают, что то, с чем они здесь столкнулись, едва ли можно объяснить рационально...

IMDB 4.70 (921)


Качество: WEB-DLRip
Формат: AVI
Видео кодек: XviD
Звук кодек: MP3
Видео: MPEG4, XviD, 720x304 (2.35:1), 23.976 fps, 989 Kbps (0.188 bit/pixel)
Звук: MP3, 48.0 KHz, 2 ch, 128 Kbps, CBR

Формат : AVI
Формат/Информация : Audio Video Interleave
Размер файла : 743 Мбайт
Продолжительность : 1 ч. 32 м.
Общий поток : 1126 Кбит/сек
Программа кодирования : VirtualDubMod 1.5.10.3 | www.virtualdub-fr.org || (build 2550/release)
Библиотека кодирования : VirtualDubMod build 2550/release

Видео
Идентификатор : 0
Формат : MPEG-4 Visual
Профиль формата : Advanced Simple@L5
Параметр BVOP формата : 1
Параметр QPel формата : Нет
Параметр GMC формата : Без точки перехода
Параметр матрицы формата : Default (MPEG)
Идентификатор кодека : XVID
Идентификатор кодека/Подсказка : XviD
Продолжительность : 1 ч. 32 м.
Битрейт : 989 Кбит/сек
Ширина : 720 пикселей
Высота : 304 пикселя
Соотношение сторон : 2,35:1
Частота кадров : 23,976 кадра/сек
Цветовое пространство : YUV
Субдискретизация насыщенности : 4:2:0
Битовая глубина : 8 бит
Тип развёртки : Прогрессивная
Метод сжатия : С потерями
Бит/(Пиксели*Кадры) : 0.188
Размер потока : 653 Мбайт (88%)
Библиотека кодирования : XviD 73

Аудио
Идентификатор : 1
Формат : MPEG Audio
Версия формата : Version 1
Профиль формата : Layer 3
Идентификатор кодека : 55
Идентификатор кодека/Подсказка : MP3
Продолжительность : 1 ч. 32 м.
Вид битрейта : Постоянный
Битрейт : 128 Кбит/сек
Каналы : 2 канала
Частота : 48,0 КГц
Метод сжатия : С потерями
Размер потока : 84,5 Мбайт (11%)
Выравнивание : Соединение по промежуткам
Продолжительность промежутка : 42 мс. (1,00 видеокадр)
Время предзагрузки промежутка : 504 мс.
Библиотека кодирования : LAME3.99r
Настройки программы : -m s -V 4 -q 2 -lowpass 17 -b 128
pic pic pic
Для увеличения картинки щелкните мышкой по превью

Этот торрент недоступен для скачивания без регистрации, однако доступен по публичной magnet-ссылке (источники с публичных трекеров). Перед использованием ссылки прочтите, пожалуйста Пользовательское соглашение, а также как можно дольше оставайтесь на раздаче! Для того, чтобы скачать сам торрент-файл (который видит больше источников), а также для того, чтобы поблагодарить релизера, вам необходимо зарегистрироваться. Если регистрироваться лень - вы можете также попробовать скачать релиз по нашим партнерским ссылкам ниже.

[underverse.su].t48591.torrent
Трекер: Зарегистрирован   [ 23.01.2015 12:07 ]  

Статус: проверено (by Паукан at 23.01.2015 12:07)
Поблагодарили: пока никто не поблагодарил...
Тип торрента: публичный - доступные источники с открытых трекеров: 
Размер: 743 MB (занимает 0,17 DVDR, для записи нужно 1 болванка DVDR/RW)
 
 
Похожие темы
Форум Тема Автор Торрент Отв. Посл. сооб.
T Зарубежное кино [DVDRip, Low-Res HDRip, и т.д.] Последняя любовь мистера Моргана / Mr. Morgan's Last Love (Сандра Неттельбек / Sandra Nettelbeck) [2013 г., драма, комедия, BDRip-AVC] Dub (чистый звук) + DVO (Чистохина и Чепусов) + Original (Eng)... 90ytr90
2 | 0

0 | 444

11

23.04.2014 18:16

Зарубежное кино [DVDRip, Low-Res HDRip, и т.д.] Последняя надежда человечества / Against the Dark (Ричард Крудо) [2009 г., ужасы, фантастика, боевик, триллер, DVDRip] Boromir9
0 | 1

1 | 2072

3

19.12.2010 11:58

Зарубежное кино [DVDRip, Low-Res HDRip, и т.д.] Последняя любовь на Земле / Perfect Sense (Дэвид МакКензи) [2011 г., фантастика, драма, мелодрама, HDRip] MVO RG NewCinema
11 | 4

0 | 1242

41

13.11.2012 18:15

Зарубежное кино [DVDRip, Low-Res HDRip, и т.д.] Последняя искра жизни / La chispa de la vida (Алекс де ла Иглесиа) [2011, драма, DVDRip] MVO + Original Spa Garnett
13 | 0

0 | 861

4

10.12.2012 05:23

Зарубежное кино [DVDRip, Low-Res HDRip, и т.д.] Последняя искра жизни / La chispa de la vida (Алекс де ла Иглесиа) [2011, драма, DVDRip] MVO Garnett
30 | 0

1 | 1012

4

12.12.2012 18:06

Зарубежное кино [DVDRip, Low-Res HDRip, и т.д.] Последняя любовь на Земле / Perfect Sense (Дэвид МакКензи) [2011 г., фантастика, драма, мелодрама , BDRip-AVC] MVO Чертёнок
8 | 0

0 | 1364

27

02.02.2013 21:41

Зарубежное кино [DVDRip, Low-Res HDRip, и т.д.] Последняя карета / Последний вагон / The Last Wagon / L'ultima carrozzella (Марио Маттоли) [1943 г., Комедия, DVDRip] VO + Original Чертёнок
0 | 1

0 | 1294

1

23.09.2013 09:54

Зарубежное кино [DVDRip, Low-Res HDRip, и т.д.] Последняя любовь мистера Моргана / Mr. Morgan's Last Love (Сандра Неттельбек) [2013 г., драма, комедия, HDRip] DVO (CasStudio) 90ytr90
1 | 0

1 | 2074

37

22.12.2013 02:15

Зарубежное кино [DVDRip, Low-Res HDRip, и т.д.] Последняя любовь мистера Моргана / Mr. Morgan's Last Love (Сандра Неттельбек) [2013 г., драма, комедия, HDRip] DVO (CasStudio) 90ytr90
0 | 1

0 | 563

15

22.12.2013 06:46

T Зарубежное кино [DVDRip, Low-Res HDRip, и т.д.] Последняя любовь мистера Моргана / Mr. Morgan's Last Love (Сандра Неттельбек / Sandra Nettelbeck) [2013 г., драма, комедия, HDRip] Dub (чистый звук) + Original (Eng) 90ytr90
11 | 0

1 | 561

14

03.07.2014 21:53


Яндекс.Метрика powered by Sphinx


В Н И М А Н И Е
Сайт не распространяет и не хранит электронные версии произведений, а лишь бесплатно и без коммерческой выгоды (не требуя взамен платы,
SMS и т.д.) предоставляет доступ к создаваемому пользователями каталогу ссылок на торрент-файлы, которые содержат только списки хеш-сумм.
Убедительная просьба с жалобами обращаться напрямую к пользователю, разместившему торрент файл.

Вверх