Loading...
Error

Оставшийся / The Remaining (Кэйси Ла Скала) [2014 г., фантастика, ужасы, триллер, HDRip-AVC] DVO [DeadSno & den904]

Статистика раздачи
Размер:  1,46 GB   |    Зарегистрирован:  1 год 10 месяцев   |    Скачан:  13 раз

Полного источника не было: 1 год 1 месяц

Сидов:  0  |  0 KB/s  ]   Личеров:  0  |  0 KB/s  ]

* - сиды/пиры с внешних источников

   
 
Автор Сообщение

Паукан Пол:Муж

20-Янв-2015 17:19

Оставшийся / The Remaining


Название: Оставшийся
Оригинальное название: The Remaining
Год выхода: 2014
Жанр: Фантастика, ужасы, триллер
Выпущено: США, Affirm Films, Cinematic
Продолжительность: 01:27:50
Перевод: Любительский двухголосый (DeadSno & den904)
Субтитры: Английские

Режиссер-постановщик: Кэйси Ла Скала

В ролях: Джонни Пакар, Шон Сайпос, Брайан Дечарт, Алекса ПенаВега, Италиа Риччи, Джон Пайпер-Фергюсон, Ким Пачеко, Хейли Ловитт, Эрин Мерфи

Описание: Несколько молодых людей собираются вместе, чтобы отпраздновать свадьбу двух своих друзей. Во время празднования происходит череда катастрофических событий, которая превращает празднование в борьбу не на жизнь, а на смерть. Герои отчаянно сражаются за свое убежище, за свои жизни с врагом, которого они никогда не встречали…



Качество: HDRip-AVC
Видео: MPEG-4 AVC, 1922 Кбит/с, 1024x556
Аудио: АС3, 6 ch, 448 Кбит/с
Размер: 1.46 ГБ
Сэмпл
Автор: FAGOT100
x264 [info]: frame I:1021 Avg QP:14.82 size: 62051
x264 [info]: frame P:34117 Avg QP:17.80 size: 19109
x264 [info]: frame B:91222 Avg QP:20.06 size: 6031

Формат : Matroska
Версия формата : Version 2
Размер файла : 1,46 Гбайт
Продолжительность : 1 ч. 27 м.
Общий поток : 2372 Кбит/сек
Дата кодирования : UTC 2015-01-18 06:23:45
Программа кодирования : mkvmerge v5.3.0 ('I could have danced') built on Feb 9 2012 10:38:07
Библиотека кодирования : libebml v1.2.3 + libmatroska v1.3.0
Attachment : Yes

Видео
Идентификатор : 1
Формат : AVC
Формат/Информация : Advanced Video Codec
Профиль формата : High@L4.1
Параметр CABAC формата : Да
Параметр ReFrames формата : 8 кадров
Идентификатор кодека : V_MPEG4/ISO/AVC
Продолжительность : 1 ч. 27 м.
Битрейт : 1922 Кбит/сек
Ширина : 1024 пикселя
Высота : 556 пикселей
Соотношение сторон : 1,85:1
Режим частоты кадров : Постоянный
Частота кадров : 23,976 кадра/сек
Цветовое пространство : YUV
Субдискретизация насыщенности : 4:2:0
Битовая глубина : 8 бит
Тип развёртки : Прогрессивная
Бит/(Пиксели*Кадры) : 0.141
Размер потока : 1,15 Гбайт (79%)
Библиотека кодирования : x264 core 142 r2431 ac76440
Настройки программы : cabac=1 / ref=8 / deblock=1:-3:-3 / analyse=0x3:0x133 / me=umh / subme=10 / psy=1 / psy_rd=1.00:0.15 / mixed_ref=1 / me_range=24 / chroma_me=1 / trellis=2 / 8x8dct=1 / cqm=0 / deadzone=21,11 / fast_pskip=1 / chroma_qp_offset=-3 / threads=12 / lookahead_threads=1 / sliced_threads=0 / nr=0 / decimate=1 / interlaced=0 / bluray_compat=0 / constrained_intra=0 / bframes=6 / b_pyramid=2 / b_adapt=2 / b_bias=0 / direct=3 / weightb=1 / open_gop=0 / weightp=2 / keyint=240 / keyint_min=23 / scenecut=40 / intra_refresh=0 / rc=2pass / mbtree=0 / bitrate=1922 / ratetol=1.0 / qcomp=0.60 / qpmin=0 / qpmax=69 / qpstep=4 / cplxblur=20.0 / qblur=0.5 / ip_ratio=1.40 / pb_ratio=1.30 / aq=1:1.00
Язык : English
Default : Да
Forced : Нет

Аудио
Идентификатор : 2
Формат : AC-3
Формат/Информация : Audio Coding 3
Расширение режима : CM (complete main)
Параметр Endianness формата : Big
Идентификатор кодека : A_AC3
Продолжительность : 1 ч. 27 м.
Вид битрейта : Постоянный
Битрейт : 448 Кбит/сек
Каналы : 6 каналов
Расположение каналов : Front: L C R, Side: L R, LFE
Частота : 48,0 КГц
Битовая глубина : 16 бит
Метод сжатия : С потерями
Размер потока : 281 Мбайт (19%)
Default : Да
Forced : Нет
pic pic pic
Для увеличения картинки щелкните мышкой по превью

Этот торрент недоступен для скачивания без регистрации, однако доступен по публичной magnet-ссылке (источники с публичных трекеров). Перед использованием ссылки прочтите, пожалуйста Пользовательское соглашение, а также как можно дольше оставайтесь на раздаче! Для того, чтобы скачать сам торрент-файл (который видит больше источников), а также для того, чтобы поблагодарить релизера, вам необходимо зарегистрироваться. Если регистрироваться лень - вы можете также попробовать скачать релиз по нашим партнерским ссылкам ниже.

[underverse.su].t48518.torrent
Трекер: Зарегистрирован   [ 20.01.2015 17:19 ]  

Статус: проверено (by Паукан at 20.01.2015 17:19)
Поблагодарили: пока никто не поблагодарил...
Тип торрента: публичный - доступные источники с открытых трекеров: 
Размер: 1,46 GB (занимает 1/3 DVDR, для записи нужно 1 болванка DVDR/RW)
 
 
Похожие темы
Форум Тема Автор Торрент Отв. Посл. сооб.
Зарубежное кино [DVDRip, Low-Res HDRip, и т.д.] Оставшийся в живых / Survivor (Джон Лойд) [2014 г., фантастика, фэнтези, боевик, HDRip] VO Су-34
89 | 1

0 | 1373

42

02.08.2014 18:23

Зарубежное кино [DVDRip, Low-Res HDRip, и т.д.] Оставшийся в живых / Survivor (Джон Лойд / John Lyde) [2014 г., фантастика, фэнтези, боевик, HDRip] VO Паукан
8 | 0

0 | 1188

19

04.08.2014 09:38

Зарубежное кино [DVDRip, Low-Res HDRip, и т.д.] Оставшийся / The Remaining (Кэйси Ла Скала / Casey La Scala) [2014 г., фантастика, ужасы, триллер, HDRip] DVO (DeadSno & den904) 90ytr90
0 | 0

0 | 814

19

17.01.2015 07:49

Зарубежное кино [DVDRip, Low-Res HDRip, и т.д.] Оставшийся / The Remaining (Кэйси Ла Скала / Casey La Scala) [2014 г., фантастика, ужасы, триллер, HDRip] MVO 90ytr90
3 | 0

0 | 282

4

08.02.2015 09:44

Зарубежное кино [DVDRip, Low-Res HDRip, и т.д.] Оставшийся / The Remaining (Кэйси Ла Скала / Casey La Scala) [2014 г., ужасы, триллер, BDRip-AVC] MVO + Original (Eng) + Sub (Eng) 90ytr90
10 | 0

0 | 241

5

11.02.2015 12:26

Зарубежное кино [HDDVDRip / BDRip / WEB-DL / HDTV 1080/720р] Оставшийся / The Remaining (Кэйси Ла Скала / Casey La Scala) [2014 г., фантастика, ужасы, триллер, BDRip 720p] MVO + Original (Eng) + Sub (Eng) 90ytr90
12 | 2

0 | 285

4

08.02.2015 09:47


Яндекс.Метрика powered by Sphinx


В Н И М А Н И Е
Сайт не распространяет и не хранит электронные версии произведений, а лишь бесплатно и без коммерческой выгоды (не требуя взамен платы,
SMS и т.д.) предоставляет доступ к создаваемому пользователями каталогу ссылок на торрент-файлы, которые содержат только списки хеш-сумм.
Убедительная просьба с жалобами обращаться напрямую к пользователю, разместившему торрент файл.

Вверх