Loading...
Error

Ошибка времени / Time Lapse (Брэдли Кинг) [2015 г., фантастика, триллер, WEB-DLRip] DVO [RAIM & GUGU]

Статистика раздачи
Размер:  1,26 GB   |    Зарегистрирован:  1 год 10 месяцев   |    Скачан:  111 раз

Полного источника не было: 3 месяца 23 дня

Сидов:  0  |  0 KB/s  ]   Личеров:  0  |  0 KB/s  ]

* - сиды/пиры с внешних источников

   
 
Автор Сообщение

Паукан Пол:Муж

20-Янв-2015 16:42

Ошибка времени / Time Lapse


Название: Ошибка времени
Оригинальное название: Time Lapse
Год выпуска: 2014
Жанр: Фантастика, триллер
Выпущено: США, Uncooperative Pictures
Режиссёр: Брэдли Кинг
Актеры: Даниэль Панабэйкер, Мэтт О`Лири, Джордж Финн, Эймин Джозеф, Джейсон Спайсэк, Дэвид Фильоли, Шэрон Мофан, Джудит Дрэйк, Марк С. Хэнсон

Описание: Трое приятелей — подающий надежды художник и по совместительству управдом Финн, его девушка официантка и писательница Кэлли и их друг Джаспер, помешанный на собачьих гонках, — находят в комнате соседа-ученого странное изобретение — машину, печатающую фотографии из будущего дня. Теперь Джаспер знает, на каких собак нужно ставить, и Финн и Кэлли могут, наконец, посвятить себя любимым занятиям. Но вскоре визуальные пророчества загадочной машины начинают обескураживать и пугать героев…



Качество: WEB-DLRip
Видео: XviD, 1537 Кбит/с, 720x400
Звук: AC3, 2 ch, 192 Кбит/с
Продолжительность: 01:43:47
Перевод: Любительский двухголосый закадровый [RAIM & GUGU]

Семпл
General
Complete name : Time.Lapse.2014.HDRip.XviD.avi
Format : AVI
Format/Info : Audio Video Interleave
File size : 1.26 GiB
Duration : 1h 43mn
Overall bit rate : 1 738 Kbps
Writing application : VirtualDubMod 1.5.10.2 (build 2542/release)
Writing library : VirtualDubMod build 2542/release

Video
ID : 0
Format : MPEG-4 Visual
Format profile : Advanced Simple@L5
Format settings, BVOP : 2
Format settings, QPel : No
Format settings, GMC : No warppoints
Format settings, Matrix : Default (H.263)
Muxing mode : Packed bitstream
Codec ID : XVID
Codec ID/Hint : XviD
Duration : 1h 43mn
Bit rate : 1 537 Kbps
Width : 720 pixels
Height : 400 pixels
Display aspect ratio : 16:9
Frame rate : 23.976 fps
Color space : YUV
Chroma subsampling : 4:2:0
Bit depth : 8 bits
Scan type : Progressive
Compression mode : Lossy
Bits/(Pixel*Frame) : 0.223
Stream size : 1.11 GiB (88%)
Writing library : XviD 64

Audio
ID : 1
Format : AC-3
Format/Info : Audio Coding 3
Mode extension : CM (complete main)
Format settings, Endianness : Big
Codec ID : 2000
Duration : 1h 43mn
Bit rate mode : Constant
Bit rate : 192 Kbps
Channel(s) : 2 channels
Channel positions : Front: L R
Sampling rate : 48.0 KHz
Bit depth : 16 bits
Compression mode : Lossy
Stream size : 143 MiB (11%)
Alignment : Split accross interleaves
Interleave, duration : 42 ms (1.00 video frame)
Interleave, preload duration : 500 ms
pic pic pic
Для увеличения картинки щелкните мышкой по превью

Этот торрент недоступен для скачивания без регистрации, однако доступен по публичной magnet-ссылке (источники с публичных трекеров). Перед использованием ссылки прочтите, пожалуйста Пользовательское соглашение, а также как можно дольше оставайтесь на раздаче! Для того, чтобы скачать сам торрент-файл (который видит больше источников), а также для того, чтобы поблагодарить релизера, вам необходимо зарегистрироваться. Если регистрироваться лень - вы можете также попробовать скачать релиз по нашим партнерским ссылкам ниже.

[underverse.su].t48513.torrent
Трекер: Зарегистрирован   [ 20.01.2015 16:42 ]  

Статус: проверено (by Паукан at 20.01.2015 16:43)
Поблагодарили: 3 человека
Тип торрента: публичный - доступные источники с открытых трекеров: 
Размер: 1,26 GB (занимает 0,29 DVDR, для записи нужно 1 болванка DVDR/RW)
 
 
Похожие темы
Форум Тема Автор Торрент Отв. Посл. сооб.
# Зарубежное кино [DVDRip, Low-Res HDRip, и т.д.] Ошибка времени / Time Lapse (Брэдли Кинг / Bradley King) [2014 г., фантастика, триллер, WEB-DLRip] DVO (RAIM & GUGU) + Original (Eng) 90ytr90
4 | 0

1 | 746

31

30.01.2015 14:40

T Зарубежное кино [DVDRip, Low-Res HDRip, и т.д.] Ошибка времени / Замедленная съемка / Time Lapse (Брэдли Кинг) [2014 г., фантастика, триллер, HDRip] MVO (Line) makkol
2 | 0

0 | 842

60

20.03.2016 12:02

Зарубежное кино [HDDVDRip / BDRip / WEB-DL / HDTV 1080/720р] Ошибка времени / Time Lapse (Брэдли Кинг / Bradley King) [2014 г., фантастика, триллер, WEB-DL 720p] DVO (RAIM & GUGU) + Original (Eng) 90ytr90
1 | 0

0 | 787

36

26.01.2015 11:12

T Зарубежное кино [HDDVDRip / BDRip / WEB-DL / HDTV 1080/720р] Ошибка времени / Замедленная съемка / Time Lapse (Брэдли Кинг) [2014 г., фантастика, триллер, BDRip 720p] MVO (Line) + Original makkol
30 | 2

0 | 872

28

20.03.2016 12:12


Яндекс.Метрика powered by Sphinx


В Н И М А Н И Е
Сайт не распространяет и не хранит электронные версии произведений, а лишь бесплатно и без коммерческой выгоды (не требуя взамен платы,
SMS и т.д.) предоставляет доступ к создаваемому пользователями каталогу ссылок на торрент-файлы, которые содержат только списки хеш-сумм.
Убедительная просьба с жалобами обращаться напрямую к пользователю, разместившему торрент файл.

Вверх