Loading...
Error

Добро пожаловать в рай / Vice (Брайан А Миллер) [2015 г., фантастика, боевик, триллер, приключения, WEB-DLRip] DVO [RAIM & GUGU]

Статистика раздачи
Размер:  1,31 GB   |    Зарегистрирован:  1 год 10 месяцев   |    Скачан:  38 раз
Сидов:  1  |  0 KB/s  ]   Личеров:  0  |  0 KB/s  ]

* - сиды/пиры с внешних источников

   
 
Автор Сообщение

Паукан Пол:Муж

20-Янв-2015 16:39

Добро пожаловать в рай / Vice


Название: Добро пожаловать в рай
Оригинальное название: Vice
Год выхода: 2015
Жанр: Фантастика, боевик, триллер, приключения
Выпущено: США, Aperture Entertainment, Emmett/Furla Films
Режиссёр: Брайан А Миллер
Актеры: Томас Джейн, Брюс Уиллис, Эмбир Чилдерс, Брайан Гринберг, Джонатон Шек, Шарлотта Кирк, Бретт Гранстафф, Райан О’Нан, Дэвид Гордон, Колин Эглсфилд

Описание: Действие происходит в относительно недалеком будущем, когда для богачей создан специальный город-курорт, основные обитатели которых и обслуга — андроиды. Туристы за соответствующую цену могут осуществить здесь самые безумные свои фантазии, а андроиды, пострадавшие от рук людей, направляются на перезагрузку памяти. Но однажды случается сбой, и женщина-андроид обретает память о всех кошмарах, которым богатые извращенцы подвергали ее и остальных искусственных людей. И она решает отомстить…



Качество: WEB-DLRip
Видео: XviD, 1748 Кбит/с, 720x304
Аудио: AC3, 2 ch, 192 Кбит/с
Продолжительность: 01:36:21
Перевод: Любительский двухголосый [RAIM & GUGU]

Семпл
General
Complete name : Vice.2015.HDRip.XviD.avi
Format : AVI
Format/Info : Audio Video Interleave
File size : 1.31 GiB
Duration : 1h 36mn
Overall bit rate : 1 950 Kbps
Writing application : VirtualDubMod 1.5.10.2 (build 2542/release)
Writing library : VirtualDubMod build 2542/release

Video
ID : 0
Format : MPEG-4 Visual
Format profile : Advanced Simple@L5
Format settings, BVOP : 2
Format settings, QPel : No
Format settings, GMC : No warppoints
Format settings, Matrix : Default (H.263)
Muxing mode : Packed bitstream
Codec ID : XVID
Codec ID/Hint : XviD
Duration : 1h 36mn
Bit rate : 1 672 Kbps
Width : 720 pixels
Height : 304 pixels
Display aspect ratio : 2.35:1
Frame rate : 23.976 fps
Color space : YUV
Chroma subsampling : 4:2:0
Bit depth : 8 bits
Scan type : Progressive
Compression mode : Lossy
Bits/(Pixel*Frame) : 0.319
Stream size : 1.13 GiB (86%)
Writing library : XviD 64

Audio
ID : 1
Format : AC-3
Format/Info : Audio Coding 3
Mode extension : CM (complete main)
Format settings, Endianness : Big
Codec ID : 2000
Duration : 1h 36mn
Bit rate mode : Constant
Bit rate : 192 Kbps
Channel(s) : 2 channels
Channel positions : Front: L R
Sampling rate : 48.0 KHz
Bit depth : 16 bits
Compression mode : Lossy
Stream size : 132 MiB (10%)
Alignment : Split accross interleaves
pic pic pic
Для увеличения картинки щелкните мышкой по превью

Этот торрент недоступен для скачивания без регистрации, однако доступен по публичной magnet-ссылке (источники с публичных трекеров). Перед использованием ссылки прочтите, пожалуйста Пользовательское соглашение, а также как можно дольше оставайтесь на раздаче! Для того, чтобы скачать сам торрент-файл (который видит больше источников), а также для того, чтобы поблагодарить релизера, вам необходимо зарегистрироваться. Если регистрироваться лень - вы можете также попробовать скачать релиз по нашим партнерским ссылкам ниже.

[underverse.su].t48512.torrent
Трекер: Зарегистрирован   [ 20.01.2015 16:39 ]  

Статус: проверено (by Паукан at 20.01.2015 16:40)
Поблагодарили: 1 человек
Тип торрента: публичный - доступные источники с открытых трекеров: 
Размер: 1,31 GB (занимает 0,3 DVDR, для записи нужно 1 болванка DVDR/RW)
 
 
Похожие темы
Форум Тема Автор Торрент Отв. Посл. сооб.
Зарубежное кино [DVDRip, Low-Res HDRip, и т.д.] Добро пожаловать на Север / Benvenuti al nord (Люка Миньеро) [2012 г., комедия, DVDRip] nemos
0 | 0

2 | 1089

18

20.08.2012 16:43

Зарубежное кино [DVDRip, Low-Res HDRip, и т.д.] Добро пожаловать на борт / Bienvenue a bord (Эрик Лавэн) [2011 г., комедия, HDRip] 90ytr90
2 | 0

0 | 793

28

16.09.2012 09:02

Зарубежное кино [DVDRip, Low-Res HDRip, и т.д.] Добро пожаловать в капкан / Welcome to the Punch (Эрен Криви) [2013 г., боевик, триллер, криминал, приключения, WEB-DLRip] AVO [А. Дольский] RG NewCinema
4 | 1

0 | 3453

63

02.04.2013 11:09

Зарубежное кино [DVDRip, Low-Res HDRip, и т.д.] Добро пожаловать в мотель Бейтса / The Bates Haunting (Байрон Турк) [2012 г., ужасы, триллер, WEB-DLRip] DVO Чертёнок
1 | 0

0 | 881

13

14.08.2013 10:30

Зарубежное кино [DVDRip, Low-Res HDRip, и т.д.] Добро пожаловать в Лэйквью / Lakeview Terrace (Нил ЛаБут / Neil LaBute) [2008 г., триллер, драма, криминал, HDRip] Паукан
1 | 0

0 | 951

20

16.08.2013 14:33

Зарубежное кино [DVDRip, Low-Res HDRip, и т.д.] Добро пожаловать в капкан / Добро пожаловать в Панч / Welcome to the Punch (Эрен Криви / Eran Creevy) [2013 г., боевик, триллер, криминал, BDRip] AVO (А.Дольский) + Original 90ytr90
0 | 0

0 | 2288

30

11.10.2013 13:24

T Зарубежное кино [DVDRip, Low-Res HDRip, и т.д.] Добро пожаловать в Нью-Йорк / Welcome to New York (Абель Феррара) [2014 г., драма, WEB-DLRip] MVO Паукан
8 | 0

0 | 950

19

05.08.2014 09:45

Зарубежное кино [DVDRip, Low-Res HDRip, и т.д.] Добро пожаловать в Нью-Йорк / Welcome to New York (Абель Феррара / Abel Ferrara) [2014 г., драма, DVDRip] MVO 90ytr90
3 | 0

0 | 1027

26

22.08.2014 10:35

Зарубежное кино [DVDRip, Low-Res HDRip, и т.д.] Добро пожаловать в Нью-Йорк / Welcome to New York (Абель Феррара / Abel Ferrara) [2014 г., драма, DVDRip] MVO + Original (Eng) 90ytr90
0 | 0

0 | 1185

24

22.08.2014 10:41

Зарубежное кино [DVDRip, Low-Res HDRip, и т.д.] Добро пожаловать в Нью-Йорк / Welcome to New York (Абель Феррара) [2014 г., Драма, BDRip] MVO (RUS, Лицензия) + Original (ENG) Ведьмочка
1 | 0

1 | 854

5

13.10.2014 10:36


Яндекс.Метрика powered by Sphinx


В Н И М А Н И Е
Сайт не распространяет и не хранит электронные версии произведений, а лишь бесплатно и без коммерческой выгоды (не требуя взамен платы,
SMS и т.д.) предоставляет доступ к создаваемому пользователями каталогу ссылок на торрент-файлы, которые содержат только списки хеш-сумм.
Убедительная просьба с жалобами обращаться напрямую к пользователю, разместившему торрент файл.

Вверх