Loading...
Error

Жизнь со Сталиным на обложке [2014 г., документальный, HDTVRip]

Статистика раздачи
Размер:  449 MB   |    Зарегистрирован:  1 год 10 месяцев   |    Скачан:  2 раза

Полного источника не было: 10 часов

Сидов:  0  |  0 KB/s  ]   Личеров:  0  |  0 KB/s  ]

* - сиды/пиры с внешних источников

   
 
Автор Сообщение

матроскин Пол:Муж

17-Янв-2015 11:16

Жизнь со Сталиным на обложке


Год выпуска: 2014
Жанр: документальный
Страна: Россия
Выпущено: Красное Тв
Сюжет фильма:
Посол США в СССР Джозеф Дэвис : Советские руководители честны в своих убеждениях, говорят правду и выполняют свои обещания. Они сильны, отважны и хотят честно поступать по отношению к другим при условии, что и к ним относятся честно. Советская внешняя политика всегда была направлена на предотвращения войны....
Качество видео: HDTVRip

Продолжительность: 00:20:02
Формат: avi
Видео: DivX 4, 854x480, 2863 kbps
Аудио: русский, оригинал, MP3 2.0, 256 kbps

Код:

General
Complete name                    : C:\Users\Ohrana\Desktop\Жизнь со Сталиным на обложке.avi
Format                           : AVI
Format/Info                      : Audio Video Interleave
File size                        : 449 MiB
Duration                         : 20mn 2s
Overall bit rate                 : 3 132 Kbps
Writing application              : Lavf52.93.0

Video
ID                               : 0
Format                           : MPEG-4 Visual
Format profile                   : Simple@L1
Format settings, BVOP            : No
Format settings, QPel            : No
Format settings, GMC             : No warppoints
Format settings, Matrix          : Default (H.263)
Codec ID                         : DIVX
Codec ID/Info                    : Project Mayo
Codec ID/Hint                    : DivX 4
Duration                         : 20mn 2s
Bit rate                         : 2 864 Kbps
Width                            : 854 pixels
Height                           : 480 pixels
Display aspect ratio             : 16/9
Frame rate                       : 25.000 fps
Resolution                       : 24 bits
Colorimetry                      : 4:2:0
Scan type                        : Progressive
Bits/(Pixel*Frame)               : 0.279
Stream size                      : 411 MiB (91%)
Writing library                  : Lavc52.108.0

Audio
ID                               : 1
Format                           : MPEG Audio
Format version                   : Version 1
Format profile                   : Layer 3
Codec ID                         : 55
Codec ID/Hint                    : MP3
Duration                         : 20mn 2s
Bit rate mode                    : Constant
Bit rate                         : 256 Kbps
Channel(s)                       : 2 channels
Sampling rate                    : 44.1 KHz
Resolution                       : 16 bits
Stream size                      : 36.7 MiB (8%)
Alignment                        : Aligned on interleaves
Interleave, duration             : 26 ms (0.65 video frame)
Interleave, preload duration     : 52 ms
Writing library                  : LAME3.98.4

picpicpicpicpicpic
Для увеличения картинки щелкните мышкой по превью

Этот торрент недоступен для скачивания без регистрации, однако доступен по публичной magnet-ссылке (источники с публичных трекеров). Перед использованием ссылки прочтите, пожалуйста Пользовательское соглашение, а также как можно дольше оставайтесь на раздаче! Для того, чтобы скачать сам торрент-файл (который видит больше источников), а также для того, чтобы поблагодарить релизера, вам необходимо зарегистрироваться. Если регистрироваться лень - вы можете также попробовать скачать релиз по нашим партнерским ссылкам ниже.

[underverse.su].t48412.torrent
Трекер: Зарегистрирован   [ 17.01.2015 11:16 ]  

Статус: проверено (by матроскин at 17.01.2015 11:18)
Поблагодарили: 2 человека
Тип торрента: публичный - доступные источники с открытых трекеров: 
Размер: 449 MB (занимает 0,1 DVDR, для записи нужно 1 болванка DVDR/RW)
 
 

матроскин Пол:Муж

17-Янв-2015 11:32





добавлено спустя 3 минуты 47 секунд:

Цветы – Генералиссимусу Сталину

В воскресенье, 21 декабря 2014 г, по случаю 135-летия со Дня рождения И.В. Сталина ЦК КПРФ и МГК КПРФ провели возложение цветов к могиле Генералиссимуса у Кремлевской стены с посещением Мавзолея В.И. Ленина. В церемонии приняли участие руководители КПРФ, депутаты Государственной Думы ФС РФ, региональных парламентов, коммунисты Московского городского и Московского областного отделений, представители общественных организаций.

матроскин Пол:Муж

24-Янв-2015 18:04

Компартия Греции провела завершающий предвыборный митинг на главной площади страны
22 января на главной площади Греции, на площади Синтагма, прошел крупный, внушительный по размерам, предвыборный митинг Коммунистической партии Греции (КПГ), в котором выступил Генсек ЦК КПГ, Димитрис Куцумбас.


2015-01-23 22:07

Генсек ЦК КПГ отметил, что как НД, так и СИРИЗА, стараются ослабить компартию, потому что они хотят подчинить народное движение, убрать препятствие с пути реализации их антинародной политики.

Димитрис Куцумбас, анализируя декларации и программы СИРИЗА и НД, показал, что обе партии в реальности служат интересам буржуазии, прибыльности капитала, поддерживают участие страны в НАТО – ЕС и капиталистический путь развития.

Генсек ЦК КПГ подчеркнул, что надежда для народа заключается в рабочей - народной оппозиции, для возвращения потерей народного дохода, чтобы борется с антинародными законами. Надежда заключается в создании народного союза, который будет бороться за социализацию монополий, за одностороннее аннулирование госдолга, за освобождение от ЕС, за народную власть. И добавил, что для того, чтобы оправдались надежды народа, требуется сильная КПГ.

Яндекс.Метрика powered by Sphinx


В Н И М А Н И Е
Сайт не распространяет и не хранит электронные версии произведений, а лишь бесплатно и без коммерческой выгоды (не требуя взамен платы,
SMS и т.д.) предоставляет доступ к создаваемому пользователями каталогу ссылок на торрент-файлы, которые содержат только списки хеш-сумм.
Убедительная просьба с жалобами обращаться напрямую к пользователю, разместившему торрент файл.

Вверх