Loading...
Error

Мировая кабала (1 серия) [2014 г., документальный, HDTVRip]

Статистика раздачи
Размер:  673 MB   |    Зарегистрирован:  2 года   |    Скачан:  80 раз

Полного источника не было: 24 дня

Сидов:  0  |  0 KB/s  ]   Личеров:  0  |  0 KB/s  ]

* - сиды/пиры с внешних источников

   
 
Автор Сообщение

матроскин Пол:Муж

17-Янв-2015 10:07

Мировая кабала (1 серия)


Год выпуска: 2014
Жанр: документальный
Страна: Россия
Выпущено: Красное Тв
Сюжет фильма:
Мир отравлен. Мир где 7 % населения имеют больше чем все остальные. Мир в котором бедность и нищета стали нормой жизни. Мир погряз в грязи, коррупции и в беззаконии. Мораль ликвидируется, а на ее смену пришла распущенность и безнравственность которая давно насаждается западом.
Качество видео: HDTVRip

Продолжительность: 00:25:02
Формат: avi
Видео: DivX 4, 854x480, 3490 kbps
Аудио: русский, оригинал, MP3 2.0, 256 kbps

Код:

General
Complete name                    : C:\Users\Ohrana\Videos\Мамонов\Мировая кабала.avi
Format                           : AVI
Format/Info                      : Audio Video Interleave
File size                        : 673 MiB
Duration                         : 25mn 2s
Overall bit rate                 : 3 759 Kbps
Writing application              : Lavf52.93.0

Video
ID                               : 0
Format                           : MPEG-4 Visual
Format profile                   : Simple@L1
Format settings, BVOP            : No
Format settings, QPel            : No
Format settings, GMC             : No warppoints
Format settings, Matrix          : Default (H.263)
Codec ID                         : DIVX
Codec ID/Info                    : Project Mayo
Codec ID/Hint                    : DivX 4
Duration                         : 25mn 2s
Bit rate                         : 3 491 Kbps
Width                            : 854 pixels
Height                           : 480 pixels
Display aspect ratio             : 16/9
Frame rate                       : 25.000 fps
Resolution                       : 24 bits
Colorimetry                      : 4:2:0
Scan type                        : Progressive
Bits/(Pixel*Frame)               : 0.341
Stream size                      : 625 MiB (93%)
Writing library                  : Lavc52.108.0

Audio
ID                               : 1
Format                           : MPEG Audio
Format version                   : Version 1
Format profile                   : Layer 3
Codec ID                         : 55
Codec ID/Hint                    : MP3
Duration                         : 25mn 2s
Bit rate mode                    : Constant
Bit rate                         : 256 Kbps
Channel(s)                       : 2 channels
Sampling rate                    : 44.1 KHz
Resolution                       : 16 bits
Stream size                      : 45.9 MiB (7%)
Alignment                        : Aligned on interleaves
Interleave, duration             : 26 ms (0.65 video frame)
Interleave, preload duration     : 52 ms
Writing library                  : LAME3.98.4

picpicpicpicpicpic
Для увеличения картинки щелкните мышкой по превью

Этот торрент недоступен для скачивания без регистрации, однако доступен по публичной magnet-ссылке (источники с публичных трекеров). Перед использованием ссылки прочтите, пожалуйста Пользовательское соглашение, а также как можно дольше оставайтесь на раздаче! Для того, чтобы скачать сам торрент-файл (который видит больше источников), а также для того, чтобы поблагодарить релизера, вам необходимо зарегистрироваться. Если регистрироваться лень - вы можете также попробовать скачать релиз по нашим партнерским ссылкам ниже.

[underverse.su].t48402.torrent
Трекер: Зарегистрирован   [ 17.01.2015 10:07 ]  

Статус: проверено (by матроскин at 17.01.2015 10:12)
Поблагодарили: 5 человек
Тип торрента: публичный - доступные источники с открытых трекеров: 
Размер: 673 MB (занимает 0,15 DVDR, для записи нужно 1 болванка DVDR/RW)
 
 
Похожие темы
Форум Тема Автор Торрент Отв. Посл. сооб.
Исторические фильмы Мировая кабала. (2 серия) [2014 г., документальный, HDTVRip] матроскин
0 | 0

8 | 1109

64

25.03.2015 21:16

Исторические фильмы Мировая кабала. (3 серия) [2014 г., документальный, HDTVRip] матроскин
0 | 0

3 | 1306

65

30.03.2015 19:37

Исторические фильмы Мировая кабала (4 серия) [2014 г., документальный, HDTVRip] матроскин
0 | 0

3 | 1046

36

29.01.2016 17:11

матроскин Пол:Муж

17-Янв-2015 10:14





матроскин Пол:Муж

25-Янв-2015 18:38

Подонок макаревич и убитая девочка. Бандеровские твари!!!

Яндекс.Метрика powered by Sphinx


В Н И М А Н И Е
Сайт не распространяет и не хранит электронные версии произведений, а лишь бесплатно и без коммерческой выгоды (не требуя взамен платы,
SMS и т.д.) предоставляет доступ к создаваемому пользователями каталогу ссылок на торрент-файлы, которые содержат только списки хеш-сумм.
Убедительная просьба с жалобами обращаться напрямую к пользователю, разместившему торрент файл.

Вверх