Loading...
Error

Паутина-8 [1-24 серии из 24] (Михаил Галин, Степан Коршунов) [2015 г., детектив, SatRip]

Статистика раздачи
Размер:  12,41 GB   |    Зарегистрирован:  1 год 10 месяцев   |    Скачан:  9 раз

Полного источника не было: 18 дней

Сидов:  0  |  0 KB/s  ]   Личеров:  0  |  0 KB/s  ]

* - сиды/пиры с внешних источников

   
 
Автор Сообщение

nemos Пол:Муж

15-Янв-2015 23:04

Паутина-8


Год выпуска: 2015
Жанр: детектив
Страна: Россия
Режиссер: Михаил Галин, Степан Коршунов
В ролях: Олег Харитонов (Туманов), Олег Филипчик (Греков), Юрий Брешин (Ефремов), Илья Роговин (Голицын), Сергей Плаксин (медэксперт), Кирилл Гранцинский (техник), Ксения Дементьева (Наташа), Анна Бачалова (Настя Малинкина), Марина Вайнбранд (Саломатина), Илья Роговин (Голицын) и другие
Сюжет фильма:
Каждый день в столице совершаются десятки преступлений. Большинство из них раскрываются по горячим следам. Но самые сложные, самые запутанные случаи попадают к майору Центрального управления полиции - Федору Туманову.Найден труп известного телеведущего. Майор Туманов (Олег Харитонов) быстро выясняет, что убитый вовсе не телезвезда. Но кто он? Почему загримирован под известного человека? И главное, почему его убили? Вопросов слишком много, но, в конце концов, вместе со своим другом и напарником Грековым (Олег Филипчик), Туманов выявит ту, единственную ниточку, которая и приведет их к ответам. Распутав этого дело, в восьмом сезоне «Паутины», Туманов догадается кому и зачем понадобилась убивать несколько человек из-за ржавой иномарки, узнает кто стоит за смертью красавицы-танцовщицы, поймет что означает медальон с цифрой «3» на шее заживо сожженного человека…
А тем временем у Грекова полным ходом идёт подготовка к свадьбе с Натальей (Ксения Дементьева), последние ссоры и недоразумения холостой жизни. Личная жизнь Туманова более драматична: он честно пытается ужиться с Настей Малинкиной (Анна Бачалова). Но пока всё сложно: Туманов работает днём и ночью, не выпуская из головы нюансы очередного дела.


Качество видео: SatRip

Продолжительность: 00:46:23 серия
Формат: AVI
Видео: XviD, 720x400, 1 393 kbps
Аудио: русский, AC3 2.0, 192 kbps

Код:

E:\Фильмы-1\ПАУТИНА-8\01 серия.avi
   General
      Complete name : E:\Фильмы-1\ПАУТИНА-8\01 серия.avi
      Format : AVI
      Format/Info : Audio Video Interleave
      File size : 529 MiB
      Duration : 46mn 23s
      Overall bit rate : 1 595 Kbps
      Writing application : VirtualDubMod 1.5.10.3 | www.virtualdub-fr.org || (build 2550/release)
      Writing library : VirtualDubMod build 2550/release
   Video #0
      ID : 0
      Format : MPEG-4 Visual
      Format profile : Advanced Simple@L5
      Format settings, BVOP : 3
      Format settings, QPel : No
      Format settings, GMC : No warppoints
      Format settings, Matrix : Custom
      Codec ID : XVID
      Codec ID/Hint : XviD
      Duration : 46mn 23s
      Bit rate : 1 393 Kbps
      Width : 720 pixels
      Height : 400 pixels
      Display aspect ratio : 16:9
      Frame rate : 25.000 fps
      Color space : YUV
      Chroma subsampling : 4:2:0
      Bit depth : 8 bits
      Scan type : Progressive
      Compression mode : Lossy
      Bits/(Pixel*Frame) : 0.194
      Stream size : 462 MiB (87%)
      Writing library : XviD 73
   Audio #1
      ID : 1
      Format : AC-3
      Format/Info : Audio Coding 3
      Mode extension : CM (complete main)
      Format settings, Endianness : Big
      Codec ID : 2000
      Duration : 46mn 23s
      Bit rate mode : Constant
      Bit rate : 192 Kbps
      Channel(s) : 2 channels
      Channel positions : Front: L R
      Sampling rate : 48.0 KHz
      Bit depth : 16 bits
      Compression mode : Lossy
      Stream size : 63.7 MiB (12%)
      Alignment : Split accross interleaves
      Interleave, duration : 40 ms (1.00 video frame)
      Interleave, preload duration : 500 ms
picpicpicpicpicpicpicpic
Для увеличения картинки щелкните мышкой по превью

Этот торрент недоступен для скачивания без регистрации, однако доступен по публичной magnet-ссылке (источники с публичных трекеров). Перед использованием ссылки прочтите, пожалуйста Пользовательское соглашение, а также как можно дольше оставайтесь на раздаче! Для того, чтобы скачать сам торрент-файл (который видит больше источников), а также для того, чтобы поблагодарить релизера, вам необходимо зарегистрироваться. Если регистрироваться лень - вы можете также попробовать скачать релиз по нашим партнерским ссылкам ниже.

[underverse.su].t48455.torrent
Трекер: Зарегистрирован   [ 17.01.2015 16:18 ]  

Статус: проверено (by nemos at 17.01.2015 16:18)
Поблагодарили: 1 человек
Тип торрента: публичный - доступные источники с открытых трекеров: 
Размер: 12,41 GB (занимает 2,83 DVDR, для записи нужно 3 болванки DVDR/RW)
 
 

Яндекс.Метрика powered by Sphinx


В Н И М А Н И Е
Сайт не распространяет и не хранит электронные версии произведений, а лишь бесплатно и без коммерческой выгоды (не требуя взамен платы,
SMS и т.д.) предоставляет доступ к создаваемому пользователями каталогу ссылок на торрент-файлы, которые содержат только списки хеш-сумм.
Убедительная просьба с жалобами обращаться напрямую к пользователю, разместившему торрент файл.

Вверх