Loading...
Error

Черепашки-ниндзя / Teenage Mutant Ninja Turtles (Джонатан Либесман) [2014 г., фантастика, BDRip] Dub + Original + Sub (Rus,Eng) HQ Underverse

Статистика раздачи
Размер:  2,18 GB   |    Зарегистрирован:  1 год 10 месяцев   |    Скачан:  25 раз
Сидов:  1  |  0 KB/s  ]   Личеров:  0  |  0 KB/s  ]

* - сиды/пиры с внешних источников

   
 
Автор Сообщение

HQ Underverse 

15-Янв-2015 15:43

Черепашки-ниндзя / Teenage Mutant Ninja Turtles


Год выпуска: 2014
Жанр: фантастика
Страна: США
Режиссер: Джонатан Либесман
В ролях: Меган Фокс, Уилл Арнетт, Уильям Фихтнер, Алан Ричсон, Ноэль Фишер, Пит Пложек, Джонни Ноксвил, Джереми Ховард, Дэнни Вудберн, Тони Шэлуб
Сюжет фильма:
Город нуждается в героях. Тьма окутала Нью-Йорк в виде Шреддера и его зловещего Клана Футов, у которого имеется железный контроль над всеми, от полицейских до политиков. Будущее выглядит мрачным, пока из канализации не поднимается и не раскрывает своё предназначение четвёрка отверженных братьев — Черепашки-ниндзя. Черепашки должны работать вместе с бесстрашным репортёром Эйприл и её саркастическим оператором Верном Фенвиком, чтобы спасти город и разгадать дьявольский план Шреддера.

  • Мировая премьера: 3 августа 2014
  • Российская премьера: 7 августа 2014, «Централ Партнершип» 3D

|
Качество видео: BDRip

Продолжительность: 01:41:18
Формат: avi
Видео: XviD, 720x304, 2169 kbps
Аудио #1: русский, дублированный [лицензия], AC3 5.1, 448 kbps
Аудио #2: английский, оригинал, AC3 5.1, 448 kbps
Субтитры #1: внешние, SRT, русский
Субтитры #2: внешние, SRT, английский
Субтитры #3: внешние, SRT, русский (FORCED)

Код:

General
Complete name                    : Y:\Черепашки Ниндзя\Teenage.Mutant.Ninja.Turtles.2014.BDRip.XviD.AC3.Rus.D.Eng.O.HQ.Underverse.avi
Format                           : AVI
Format/Info                      : Audio Video Interleave
Format profile                   : OpenDML
File size                        : 2.18 GiB
Duration                         : 1h 41mn
Overall bit rate                 : 3 084 Kbps
Writing application              : VirtualDubMod 1.5.10.3 | www.virtualdub-fr.org || (build 2550/release)
Writing library                  : VirtualDubMod build 2550/release

Video
ID                               : 0
Format                           : MPEG-4 Visual
Format profile                   : Streaming Video@L1
Format settings, BVOP            : Yes
Format settings, QPel            : No
Format settings, GMC             : No warppoints
Format settings, Matrix          : Custom
Codec ID                         : XVID
Codec ID/Hint                    : XviD
Duration                         : 1h 41mn
Bit rate                         : 2 170 Kbps
Width                            : 720 pixels
Height                           : 304 pixels
Display aspect ratio             : 2.35
Frame rate                       : 23.976 fps
Resolution                       : 24 bits
Colorimetry                      : 4:2:0
Scan type                        : Progressive
Bits/(Pixel*Frame)               : 0.413
Stream size                      : 1.54 GiB (70%)
Writing library                  : XviD 64

Audio #1
ID                               : 1
Format                           : AC-3
Format/Info                      : Audio Coding 3
Codec ID                         : 2000
Duration                         : 1h 41mn
Bit rate mode                    : Constant
Bit rate                         : 448 Kbps
Channel(s)                       : 6 channels
Channel positions                : Front: L C R, Surround: L R, LFE
Sampling rate                    : 48.0 KHz
Stream size                      : 325 MiB (15%)
Alignment                        : Split accross interleaves
Interleave, duration             : 42 ms (1.00 video frame)
Interleave, preload duration     : 500 ms

Audio #2
ID                               : 2
Format                           : AC-3
Format/Info                      : Audio Coding 3
Codec ID                         : 2000
Duration                         : 1h 41mn
Bit rate mode                    : Constant
Bit rate                         : 448 Kbps
Channel(s)                       : 6 channels
Channel positions                : Front: L C R, Surround: L R, LFE
Sampling rate                    : 48.0 KHz
Stream size                      : 325 MiB (15%)
Alignment                        : Split accross interleaves
Interleave, duration             : 42 ms (1.00 video frame)
Interleave, preload duration     : 500 ms

Релиз группы:

picpicpic
Для увеличения картинки щелкните мышкой по превью

Этот торрент недоступен для скачивания без регистрации, однако доступен по публичной magnet-ссылке (источники с публичных трекеров). Перед использованием ссылки прочтите, пожалуйста Пользовательское соглашение, а также как можно дольше оставайтесь на раздаче! Для того, чтобы скачать сам торрент-файл (который видит больше источников), а также для того, чтобы поблагодарить релизера, вам необходимо зарегистрироваться. Если регистрироваться лень - вы можете также попробовать скачать релиз по нашим партнерским ссылкам ниже.

[underverse.su].t48323.torrent
Трекер: Зарегистрирован   [ 15.01.2015 15:43 ]  

Статус: проверено (by HQ Underverse at 15.01.2015 15:43)
Поблагодарили: 1 человек
Тип торрента: публичный - доступные источники с открытых трекеров: 
Размер: 2,18 GB (занимает 1/2 DVDR, для записи нужно 1 болванка DVDR/RW)
 
 
Похожие темы
Форум Тема Автор Торрент Отв. Посл. сооб.
Зарубежное кино [DVDRip, Low-Res HDRip, и т.д.] Черепашки-ниндзя 2 / Teenage Mutant Ninja Turtles: Out of the Shadows (Дэйв Грин / Dave Green) [2016 г., фантастика, фэнтези, боевик, комедия, приключения, BDRip-AVC] Dub + Original (Eng) + Sub (Rus,... 90ytr90
78 | 1

0 | 329

1

22.10.2016 12:12

Зарубежное кино [DVDRip, Low-Res HDRip, и т.д.] Черепашки-ниндзя 2 / Teenage Mutant Ninja Turtles: Out of the Shadows (Дэйв Грин / Dave Green) [2016 г., фантастика, фэнтези, боевик, комедия, приключения, BDRip-AVC] Dub + Sub (Rus, Eng) 90ytr90
769 | 22

0 | 342

6

22.10.2016 12:06

Зарубежное кино [DVDRip, Low-Res HDRip, и т.д.] Черепашки-ниндзя 2 / Teenage Mutant Ninja Turtles: Out of the Shadows (Дэйв Грин / Dave Green) [2016 г., фантастика, фэнтези, боевик, комедия, приключения, BDRip] Dub + Original (Eng) + Sub (Rus, Eng) 90ytr90
184 | 5

0 | 336

3

22.10.2016 11:49

Зарубежное кино [DVDRip, Low-Res HDRip, и т.д.] Черепашки-ниндзя 2 / Teenage Mutant Ninja Turtles: Out of the Shadows (Дэйв Грин / Dave Green) [2016 г., фантастика, фэнтези, боевик, комедия, приключения, HDRip] Dub 90ytr90
1557 | 31

0 | 356

5

22.10.2016 11:42

Зарубежное кино [DVDRip, Low-Res HDRip, и т.д.] Черепашки-ниндзя / Teenage Mutant Ninja Turtles (Джонатан Либесман / Jonathan Liebesman) [2014 г., фантастика, BDRip] Dub + hardsub (Rus) 90ytr90
3 | 0

0 | 721

22

01.12.2014 16:41

Зарубежное кино [DVDRip, Low-Res HDRip, и т.д.] Черепашки-ниндзя / Teenage Mutant Ninja Turtles (Джонатан Либесман / Jonathan Liebesman) [2014 г., фантастика, HDRip] Dub 90ytr90
12 | 0

0 | 813

22

02.12.2014 16:20

Зарубежное кино [DVDRip, Low-Res HDRip, и т.д.] Черепашки-ниндзя / Teenage Mutant Ninja Turtles (Джонатан Либесман / Jonathan Liebesman) [2014 г., фантастика, BDRip-AVC] Dub + Subs 90ytr90
155 | 2

0 | 442

18

31.01.2015 22:19

Зарубежное кино [DVDRip, Low-Res HDRip, и т.д.] Черепашки-ниндзя / Teenage Mutant Ninja Turtles (Джонатан Либесман / Jonathan Liebesman) [2014 г., фантастика, BDRip-AVC] Dub + Original (Eng) + Subs 90ytr90
10 | 0

0 | 352

15

31.01.2015 22:19

Зарубежное кино [DVDRip, Low-Res HDRip, и т.д.] Черепашки-ниндзя / Teenage Mutant Ninja Turtles (Джонатан Либесман) [2014 г., фантастика, фэнтези, боевик, комедия, приключения, HDRip] AVO (Гаврилов) + hardsud (Rus) 90ytr90
5 | 0

0 | 373

11

10.02.2015 10:39

T Зарубежное кино [DVDRip, Low-Res HDRip, и т.д.] Черепашки-ниндзя 2 / Teenage Mutant Ninja Turtles: Out of the Shadows (Дэйв Грин / Dave Green) [2016 г., фантастика, фэнтези, боевик, комедия, приключения, WEB-DLRip-AVC] Dub (iTunes) 90ytr90
450 | 4

0 | 528

24

30.08.2016 18:52


Яндекс.Метрика powered by Sphinx


В Н И М А Н И Е
Сайт не распространяет и не хранит электронные версии произведений, а лишь бесплатно и без коммерческой выгоды (не требуя взамен платы,
SMS и т.д.) предоставляет доступ к создаваемому пользователями каталогу ссылок на торрент-файлы, которые содержат только списки хеш-сумм.
Убедительная просьба с жалобами обращаться напрямую к пользователю, разместившему торрент файл.

Вверх