Loading...
Error

Палач (1-10 серии из 10) (Вячеслав Никифоров) [2014 г., триллер, HDTVRip]

Статистика раздачи
Размер:  7,03 GB   |    Зарегистрирован:  1 год 10 месяцев   |    Скачан:  60 раз

Полного источника не было: 22 дня

Сидов:  0  |  0 KB/s  ]   Личеров:  0  |  0 KB/s  ]

* - сиды/пиры с внешних источников

   
 
Автор Сообщение

nemos Пол:Муж

13-Янв-2015 09:52

Палач


Год выпуска: 2014
Жанр: триллер
Страна: Россия
Режиссер: Вячеслав Никифоров
В ролях: Андрей Смоляков, Марина Александрова, Алексей Бардуков, Юлия Пересильд, Виктория Толстоганова, Анатолий Журавлёв, Анатолий Калмыков, Анатолий Просалов, Руслан Ягудин, Юрий Чурсин, Светлана Ходченкова, Андреас Хельги Шмид, Маттиас В. Винтцер, Борис Полунин, Юрий Тарасов, Юлия Куварзина, Людмила Полякова, Вероника Лысакова, Денис Варенов, Елена Семёнова-Хмурова, Вероника Вернадская, Станислав Беляев, Алёна Константинова, Анатолий Кузнецов, Иван Волков, Анвар Халилулаев, Денис Курочка, Ася Дубровская, Анастасия Шалонько, Луиза Мосендз, Ольга Гагарина, Игорь Филиппов, Денис Бургазлиев, Роман Стабуров, Даниэла Стоянович, Саша Дробитько
Сюжет фильма:
События разворачиваются на окраине Москвы в 1965 году. В центре - история разоблачения женщины-палача, которая во время войны по указке немцев расстреливала пленных, партизан, мирных жителей. Это фактически отдельная гражданская война изуверки со своим народом. В войну ей едва исполнилось 20 лет, а на ее счету было уже полторы тысячи убийств. Своих жертв она расстреливала из пулемета, прячась за игрушечной маской зайчика. Потом выпивала бутылку самогона и затем появлялась уже на следующее утро без маски и жила обычной жизнью, такой же, как и все остальные...Поэтому после войны вычислить убийцу было очень непросто. Дело это поручили главному следователю. Его подозрения падают то на одну, то на другую женщину...


Качество видео: HDTVRip

Продолжительность: 00:50:58 серия
Формат: AVI
Видео: XviD, 720x400, 1 800 kbps
Аудио: русский, AC3 2.0, 192 kbps

Код:

E:\Фильмы-1\Palach.HDTVRip.MediaClub\Palach.01.HDTVRip.MediaClub.avi
   General
      Complete name : E:\Фильмы-1\Palach.HDTVRip.MediaClub\Palach.01.HDTVRip.MediaClub.avi
      Format : AVI
      Format/Info : Audio Video Interleave
      File size : 730 MiB
      Duration : 50mn 58s
      Overall bit rate : 2 002 Kbps
      Writing application : VirtualDubMod 1.5.10.3 | www.virtualdub-fr.org || (build 2550/release)
      Writing library : VirtualDub build 32507/release
   Video #0
      ID : 0
      Format : MPEG-4 Visual
      Format profile : Advanced Simple@L5
      Format settings, BVOP : 1
      Format settings, QPel : No
      Format settings, GMC : No warppoints
      Format settings, Matrix : Custom
      Codec ID : XVID
      Codec ID/Hint : XviD
      Duration : 50mn 58s
      Bit rate : 1 800 Kbps
      Width : 720 pixels
      Height : 400 pixels
      Display aspect ratio : 16:9
      Frame rate : 25.000 fps
      Color space : YUV
      Chroma subsampling : 4:2:0
      Bit depth : 8 bits
      Scan type : Progressive
      Compression mode : Lossy
      Bits/(Pixel*Frame) : 0.250
      Stream size : 656 MiB (90%)
      Writing library : XviD 73
   Audio #1
      ID : 1
      Format : AC-3
      Format/Info : Audio Coding 3
      Mode extension : CM (complete main)
      Format settings, Endianness : Big
      Codec ID : 2000
      Duration : 50mn 58s
      Bit rate mode : Constant
      Bit rate : 192 Kbps
      Channel(s) : 2 channels
      Channel positions : Front: L R
      Sampling rate : 48.0 KHz
      Bit depth : 16 bits
      Compression mode : Lossy
      Stream size : 70.0 MiB (10%)
      Alignment : Split accross interleaves
      Interleave, duration : 40 ms (1.00 video frame)
      Interleave, preload duration : 500 ms
picpicpicpicpicpicpicpic
Для увеличения картинки щелкните мышкой по превью

Этот торрент недоступен для скачивания без регистрации, однако доступен по публичной magnet-ссылке (источники с публичных трекеров). Перед использованием ссылки прочтите, пожалуйста Пользовательское соглашение, а также как можно дольше оставайтесь на раздаче! Для того, чтобы скачать сам торрент-файл (который видит больше источников), а также для того, чтобы поблагодарить релизера, вам необходимо зарегистрироваться. Если регистрироваться лень - вы можете также попробовать скачать релиз по нашим партнерским ссылкам ниже.

[underverse.su].t48354.torrent
Трекер: Зарегистрирован   [ 15.01.2015 23:12 ]  

Статус: проверено (by nemos at 15.01.2015 23:12)
Поблагодарили: 6 человек
Тип торрента: публичный - доступные источники с открытых трекеров: 
Размер: 7,03 GB (занимает 1,6 DVDR, для записи нужно 2 болванки DVDR/RW)
 
 


Последний раз редактировалось: nemos (15.01.2015 23:12), всего редактировалось 2 раз(а)

nemos Пол:Муж

13-Янв-2015 21:44

Внимание!
Раздача обновлена! 10 серий.

Яндекс.Метрика powered by Sphinx


В Н И М А Н И Е
Сайт не распространяет и не хранит электронные версии произведений, а лишь бесплатно и без коммерческой выгоды (не требуя взамен платы,
SMS и т.д.) предоставляет доступ к создаваемому пользователями каталогу ссылок на торрент-файлы, которые содержат только списки хеш-сумм.
Убедительная просьба с жалобами обращаться напрямую к пользователю, разместившему торрент файл.

Вверх