Loading...
Error

Атомная драма Владимира Барковского [2014 г., документальный, TVRip]

Статистика раздачи
Размер:  622 MB   |    Зарегистрирован:  1 год 10 месяцев   |    Скачан:  13 раз

Полного источника не было: 1 день 21 час

Сидов:  0  |  0 KB/s  ]   Личеров:  0  |  0 KB/s  ]

* - сиды/пиры с внешних источников

   
 
Автор Сообщение

матроскин Пол:Муж

11-Янв-2015 12:08

Атомная драма Владимира Барковского


Год выпуска: 2014
Жанр: документальный
Страна: Россия
Режиссер: Игорь Холодков
Сюжет фильма:
Документальный фильм подготовлен при содействии Службы внешней разведки Российской Федерации 6 августа 1945 года. Человечество еще не привыкло к мирным закатам и рассветам. 1:45 утра. С тихоокеанского острова поднялся американский бомбардировщик B-29 и направился в сторону японских островов. Спустя несколько часов мир содрогнулся от ужаса: древний японский город-красавец Хиросима в одночасье превратился в эпицентр ядерного взрыва. Бомба с маркировкой "Сделано в США" взорвалась в 600 метрах над гражданским госпиталем Сима. Мгновенно было убито 70 тысяч человек, ещё 60 тысяч вскоре умерли от лучевой болезни, ожогов и ранений. А через три дня в ядерный прицел попали мирные жители Нагасаки. Животный страх охватил все человечество...
Следующей целью был СССР. Через несколько дней после мирной Потсдамской конференции, 30 августа 1945 года, США приступили к разработке секретных планов по нанесению ядерных ударов по нашей стране. Для первой атомной бомбардировки были намечены 20 основных городов и промышленных центров Советского Союза - Москва, Киев, Харьков, Ленинград, Новосибирск...
Нам ничего не оставалось, как приступить к форсированию создания собственного оружия обороны, оружия сдерживания. И 29 августа 1949 года наступил "День Истины": в Семипалатинске было произведено успешное испытание советской атомной бомбы. Американская монополия на ядерное оружие завершилась...
В фильме использованы уникальные архивные материалы, в нем участвуют историки и люди, близко знавшие Владимира Барковского, ветераны Службы внешней разведки России.
Качество видео: TVRip

Продолжительность: 00:46:31
Формат: avi
Видео: DivX 4, 640x356, 1600 kbps
Аудио: русский, оригинал, MP3 2.0, 256 kbps

Код:

General
Complete name                    : C:\Users\Ohrana\Desktop\Атомная драма Владимира Барковского.avi
Format                           : AVI
Format/Info                      : Audio Video Interleave
File size                        : 622 MiB
Duration                         : 46mn 31s
Overall bit rate                 : 1 869 Kbps
Writing application              : Lavf52.93.0

Video
ID                               : 0
Format                           : MPEG-4 Visual
Format profile                   : Simple@L1
Format settings, BVOP            : No
Format settings, QPel            : No
Format settings, GMC             : No warppoints
Format settings, Matrix          : Default (H.263)
Codec ID                         : DIVX
Codec ID/Info                    : Project Mayo
Codec ID/Hint                    : DivX 4
Duration                         : 46mn 31s
Bit rate                         : 1 600 Kbps
Width                            : 640 pixels
Height                           : 356 pixels
Display aspect ratio             : 16/9
Frame rate                       : 25.000 fps
Resolution                       : 24 bits
Colorimetry                      : 4:2:0
Scan type                        : Progressive
Bits/(Pixel*Frame)               : 0.281
Stream size                      : 533 MiB (86%)
Writing library                  : Lavc52.108.0

Audio
ID                               : 1
Format                           : MPEG Audio
Format version                   : Version 1
Format profile                   : Layer 3
Codec ID                         : 55
Codec ID/Hint                    : MP3
Duration                         : 46mn 31s
Bit rate mode                    : Constant
Bit rate                         : 256 Kbps
Channel(s)                       : 2 channels
Sampling rate                    : 44.1 KHz
Resolution                       : 16 bits
Stream size                      : 85.2 MiB (14%)
Alignment                        : Aligned on interleaves
Interleave, duration             : 26 ms (0.65 video frame)
Writing library                  : LAME3.98.4

picpicpicpicpicpic
Для увеличения картинки щелкните мышкой по превью

Этот торрент недоступен для скачивания без регистрации, однако доступен по публичной magnet-ссылке (источники с публичных трекеров). Перед использованием ссылки прочтите, пожалуйста Пользовательское соглашение, а также как можно дольше оставайтесь на раздаче! Для того, чтобы скачать сам торрент-файл (который видит больше источников), а также для того, чтобы поблагодарить релизера, вам необходимо зарегистрироваться. Если регистрироваться лень - вы можете также попробовать скачать релиз по нашим партнерским ссылкам ниже.

[underverse.su].t48196.torrent
Трекер: Зарегистрирован   [ 11.01.2015 12:08 ]  

Статус: проверено (by матроскин at 11.01.2015 12:09)
Поблагодарили: 1 человек
Тип торрента: публичный - доступные источники с открытых трекеров: 
Размер: 622 MB (занимает 0,14 DVDR, для записи нужно 1 болванка DVDR/RW)
 
 

матроскин Пол:Муж

11-Янв-2015 12:24

Качайте и смотрите документальные фильмы!

.



Яндекс.Метрика powered by Sphinx


В Н И М А Н И Е
Сайт не распространяет и не хранит электронные версии произведений, а лишь бесплатно и без коммерческой выгоды (не требуя взамен платы,
SMS и т.д.) предоставляет доступ к создаваемому пользователями каталогу ссылок на торрент-файлы, которые содержат только списки хеш-сумм.
Убедительная просьба с жалобами обращаться напрямую к пользователю, разместившему торрент файл.

Вверх