Loading...
Error

Вычислитель (Дмитрий Грачев) [2014 г., фантастика, WEB-DLRip] не требуется

Статистика раздачи
Размер:  1,37 GB   |    Зарегистрирован:  1 год 10 месяцев   |    Скачан:  58 раз

Полного источника не было: 10 часов

Сидов:  0  |  0 KB/s  ]   Личеров:  0  |  0 KB/s  ]

* - сиды/пиры с внешних источников

   
 
Автор Сообщение

Су-34 Пол:Муж

08-Янв-2015 08:24

Вычислитель
«Он знает, что будет»

Год выпуска: 2014
Жанр: фантастика
Страна: Россия
Режиссер: Дмитрий Грачев
В ролях: Евгений Миронов, Винни Джонс, Анна Чиповская, Иван Верховых, Владас Багдонас, Алексей Колубков, Никита Панфилов, Линда Нигматулина, Пётр Сковцов, Ирене Мускара
Сюжет фильма:
Десять заключенных, приговоренных к пожизненному изгнанию с планеты XT-59, отправляются в опасный путь через Саргассово Болото. Группа сразу делится на две части: Эрвин и Кристи идут на поиск Счастливых Островов, Юст ведет остальных к Гнилой Мели. Однако долгое время их маршруты практически совпадают. В первый же вечер Эрвин понимает, что его должны убить — в прошлой жизни он занимал слишком высокий пост, и теперь он опасен для тех, кто пришел к власти. Выбрав в попутчицы Кристи, он сразу старается уйти подальше от остальных членов группы, чтобы обезопасить себя. На пути к Счастливым островам герои преодолевают массу препятствий. Цена этому — свобода и счастье.
  • Российская премьера: 18 декабря 2014, «Централ Партнершип»

Качество видео: WEB-DLRip

Продолжительность: 01:19:41
Формат: AVI
Видео: DivX, 720x304, 2061 kbps
Аудио: русский, не требуется, AC3 2.0, 384 kbps

Код:

D:\Torrents\Vichisl1tel.2014.O.WEBRip.1400Mb.avi
   General
      Complete name : D:\Torrents\Vichisl1tel.2014.O.WEBRip.1400Mb.avi
      Format : AVI
      Format/Info : Audio Video Interleave
      File size : 1.37 GiB
      Duration : 1h 19mn
      Overall bit rate : 2 456 Kbps
      Writing application : VirtualDubMod 1.5.10.2 (build 2540/release)
      Writing library : VirtualDubMod build 2540/release
   Video #0
      ID : 0
      Format : MPEG-4 Visual
      Format profile : Advanced Simple@L5
      Format settings, BVOP : 2
      Format settings, QPel : No
      Format settings, GMC : No warppoints
      Format settings, Matrix : Default (MPEG)
      Codec ID : XVID
      Codec ID/Hint : XviD
      Duration : 1h 19mn
      Bit rate : 2 062 Kbps
      Width : 720 pixels
      Height : 304 pixels
      Display aspect ratio : 2.35:1
      Frame rate : 25.000 fps
      Color space : YUV
      Chroma subsampling : 4:2:0
      Bit depth : 8 bits
      Scan type : Progressive
      Compression mode : Lossy
      Bits/(Pixel*Frame) : 0.377
      Stream size : 1.15 GiB (84%)
      Writing library : XviD 1.2.1 (UTC 2008-12-04)
   Audio #1
      ID : 1
      Format : AC-3
      Format/Info : Audio Coding 3
      Mode extension : CM (complete main)
      Format settings, Endianness : Big
      Codec ID : 2000
      Duration : 1h 19mn
      Bit rate mode : Constant
      Bit rate : 384 Kbps
      Channel count : 2 channels
      Channel positions : Front: L R
      Sampling rate : 48.0 KHz
      Bit depth : 16 bits
      Compression mode : Lossy
      Stream size : 219 MiB (16%)
      Alignment : Split accross interleaves
      Interleave, duration : 40 ms (1.00 video frame)
      Interleave, preload duration : 500 ms
Семпл: http://multi-up.com/1025179

picpicpic
Для увеличения картинки щелкните мышкой по превью

Этот торрент недоступен для скачивания без регистрации, однако доступен по публичной magnet-ссылке (источники с публичных трекеров). Перед использованием ссылки прочтите, пожалуйста Пользовательское соглашение, а также как можно дольше оставайтесь на раздаче! Для того, чтобы скачать сам торрент-файл (который видит больше источников), а также для того, чтобы поблагодарить релизера, вам необходимо зарегистрироваться. Если регистрироваться лень - вы можете также попробовать скачать релиз по нашим партнерским ссылкам ниже.

[underverse.su].t48112.torrent
Трекер: Зарегистрирован   [ 08.01.2015 08:24 ]  

Статус: T временная (by 90ytr90 at 08.01.2015 10:23)
Поблагодарили: 4 человека
Тип торрента: публичный - доступные источники с открытых трекеров: 
Размер: 1,37 GB (занимает 0,31 DVDR, для записи нужно 1 болванка DVDR/RW)
 
 
Похожие темы
Форум Тема Автор Торрент Отв. Посл. сооб.
T Наше кино [DVDRip, Low-Res HDRip, и т.д.] Вычислитель (Дмитрий Грачев) [2014 г., фантастика, WEB-DLRip] iTunes 90ytr90
138 | 1

0 | 744

86

09.01.2015 09:05

T Наше кино [HDDVDRip / BDRip / WEB-DL / HDTV 1080/720р] Вычислитель (Дмитрий Грачев) [2014 г., фантастика, WEBRip 720р] Original 90ytr90
1 | 0

3 | 836

87

10.01.2015 13:37

T Наше кино [HDDVDRip / BDRip / WEB-DL / HDTV 1080/720р] Вычислитель (Дмитрий Грачев) [2014 г., фантастика, WEB-DL 720p] [iTunes] 90ytr90
3 | 0

0 | 984

103

09.01.2015 13:52

Другая компьютерная литература Вычислительные системы, сети и телекоммуникации [2009 г., обучающе-справочное издание, PDF] RUS THE_MECHANIC
0 | 0

1 | 946

10

01.12.2013 08:18

dargot54 Пол:Муж

22-Янв-2015 16:06

Так себе фильм. Хорошо, что не ходил на него в кино и не покупал ДВД. :)

Яндекс.Метрика powered by Sphinx


В Н И М А Н И Е
Сайт не распространяет и не хранит электронные версии произведений, а лишь бесплатно и без коммерческой выгоды (не требуя взамен платы,
SMS и т.д.) предоставляет доступ к создаваемому пользователями каталогу ссылок на торрент-файлы, которые содержат только списки хеш-сумм.
Убедительная просьба с жалобами обращаться напрямую к пользователю, разместившему торрент файл.

Вверх