Loading...
Error

(Шансон) Сергей Трофимов (Трофим) - Всё не важно (2010) [FLAC (Image+.CUE), Lossless]

Статистика раздачи
Размер:  379 MB   |    Зарегистрирован:  3 года 7 месяцев   |    Скачан:  6 раз

Полного источника не было: 14 дней

Сидов:  0  |  0 KB/s  ]   Личеров:  0  |  0 KB/s  ]

* - сиды/пиры с внешних источников

   
 
Автор Сообщение

Бишеп Пол:Муж

04-Янв-2015 18:58

Сергей Трофимов - Всё не важно

Жанр: Шансон
Год выпуска: 2010
Источник: CD
Производитель диска: CDLREC 5022010 CD
Аудиокодек: FLAC
Тип рипа: Image+.CUE
Битрейт аудио: lossless
Продолжительность: 00:54:02


Треклист:
01. Шансонье
02. Формула Счастья
03. Густо-Не Пусто
04. Отпускная
05. Ангел-Хранитель
06. Баня
07. Как Жаль
08. Дождливый Этюд
09. Лети
10. Бубль Гум
11. Не Рассказывай
12. Всё Не Важно
13. Царство Божие
14. О Любви
15. За Тихой Рекою (Bonus Track)

Exact Audio Copy V0.99 prebeta 5 from 4. May 2009

EAC extraction logfile from 28. May 2010, 0:18

Сергей Трофимов (Трофим) / Всё Не Важно

Used drive : Optiarc DVD RW AD-7200A Adapter: 1 ID: 0

Read mode : Secure
Utilize accurate stream : Yes
Defeat audio cache : Yes
Make use of C2 pointers : No

Read offset correction : 48
Overread into Lead-In and Lead-Out : No
Fill up missing offset samples with silence : Yes
Delete leading and trailing silent blocks : No
Null samples used in CRC calculations : Yes
Used interface : Installed external ASPI interface

Used output format : User Defined Encoder
Selected bitrate : 768 kBit/s
Quality : High
Add ID3 tag : No
Command line compressor : C:\Program Files\Exact Audio Copy\FLAC\FLAC.EXE
Additional command line options : -8 -V %s

TOC of the extracted CD

Track | Start | Length | Start sector | End sector
---------------------------------------------------------
1 | 0:00.00 | 3:59.72 | 0 | 17996
2 | 3:59.72 | 2:55.64 | 17997 | 31185
3 | 6:55.61 | 3:44.18 | 31186 | 48003
4 | 10:40.04 | 2:58.26 | 48004 | 61379
5 | 13:38.30 | 3:38.22 | 61380 | 77751
6 | 17:16.52 | 3:55.71 | 77752 | 95447
7 | 21:12.48 | 3:54.36 | 95448 | 113033
8 | 25:07.09 | 4:02.41 | 113034 | 131224
9 | 29:09.50 | 4:17.38 | 131225 | 150537
10 | 33:27.13 | 2:43.63 | 150538 | 162825
11 | 36:11.01 | 3:53.27 | 162826 | 180327
12 | 40:04.28 | 3:37.28 | 180328 | 196630
13 | 43:41.56 | 4:16.33 | 196631 | 215863
14 | 47:58.14 | 2:58.68 | 215864 | 229281
15 | 50:57.07 | 3:05.52 | 229282 | 243208

Range status and errors

Selected range

Filename K:\Музыка\flack-tracks\Сергей Трофимов (Трофим) - Всё Не Важно\Сергей Трофимов (Трофим) - Всё Не Важно.wav

Peak level 99.9 %
Range quality 100.0 %
Test CRC F7E923FA
Copy CRC F7E923FA
Copy OK

No errors occurred

AccurateRip summary
Track 1 not present in database
Track 2 not present in database
Track 3 not present in database
Track 4 not present in database
Track 5 not present in database
Track 6 not present in database
Track 7 not present in database
Track 8 not present in database
Track 9 not present in database
Track 10 not present in database
Track 11 not present in database
Track 12 not present in database
Track 13 not present in database
Track 14 not present in database
Track 15 not present in database
None of the tracks are present in the AccurateRip database

End of status report

REM GENRE Chanson
REM DATE 2010
REM DISCID B60CAA0F
REM COMMENT "ExactAudioCopy v0.99pb5"
PERFORMER "Сергей Трофимов (Трофим)"
TITLE "Всё Не Важно"
FILE "Сергей Трофимов (Трофим) - Всё Не Важно.flac" WAVE
TRACK 01 AUDIO
TITLE "Шансонье"
PERFORMER "Сергей Трофимов (Трофим)"
FLAGS DCP
INDEX 01 00:00:00
TRACK 02 AUDIO
TITLE "Формула Счастья"
PERFORMER "Сергей Трофимов (Трофим)"
FLAGS DCP
INDEX 00 03:57:72
INDEX 01 03:59:72
TRACK 03 AUDIO
TITLE "Густо-Не Пусто"
PERFORMER "Сергей Трофимов (Трофим)"
FLAGS DCP
INDEX 00 06:53:61
INDEX 01 06:55:61
TRACK 04 AUDIO
TITLE "Отпускная"
PERFORMER "Сергей Трофимов (Трофим)"
FLAGS DCP
INDEX 00 10:38:04
INDEX 01 10:40:04
TRACK 05 AUDIO
TITLE "Ангел-Хранитель"
PERFORMER "Сергей Трофимов (Трофим)"
FLAGS DCP
INDEX 00 13:36:30
INDEX 01 13:38:30
TRACK 06 AUDIO
TITLE "Баня"
PERFORMER "Сергей Трофимов (Трофим)"
FLAGS DCP
INDEX 00 17:14:52
INDEX 01 17:16:52
TRACK 07 AUDIO
TITLE "Как Жаль"
PERFORMER "Сергей Трофимов (Трофим)"
FLAGS DCP
INDEX 00 21:10:48
INDEX 01 21:12:48
TRACK 08 AUDIO
TITLE "Дождливый Этюд"
PERFORMER "Сергей Трофимов (Трофим)"
FLAGS DCP
INDEX 00 25:05:09
INDEX 01 25:07:09
TRACK 09 AUDIO
TITLE "Лети"
PERFORMER "Сергей Трофимов (Трофим)"
FLAGS DCP
INDEX 00 29:07:50
INDEX 01 29:09:50
TRACK 10 AUDIO
TITLE "Бубль Гум"
PERFORMER "Сергей Трофимов (Трофим)"
FLAGS DCP
INDEX 00 33:25:13
INDEX 01 33:27:13
TRACK 11 AUDIO
TITLE "Не Рассказывай"
PERFORMER "Сергей Трофимов (Трофим)"
FLAGS DCP
INDEX 00 36:09:01
INDEX 01 36:11:01
TRACK 12 AUDIO
TITLE "Всё Не Важно"
PERFORMER "Сергей Трофимов (Трофим)"
FLAGS DCP
INDEX 00 40:02:28
INDEX 01 40:04:28
TRACK 13 AUDIO
TITLE "Царство Божие"
PERFORMER "Сергей Трофимов (Трофим)"
FLAGS DCP
INDEX 00 43:39:56
INDEX 01 43:41:56
TRACK 14 AUDIO
TITLE "О Любви"
PERFORMER "Сергей Трофимов (Трофим)"
FLAGS DCP
INDEX 00 47:56:14
INDEX 01 47:58:14
TRACK 15 AUDIO
TITLE "За Тихой Рекою (Bonus track)"
PERFORMER "Сергей Трофимов (Трофим)"
FLAGS DCP
INDEX 00 50:55:07
INDEX 01 50:57:07


Этот торрент недоступен для скачивания без регистрации, однако доступен по публичной magnet-ссылке (источники с публичных трекеров). Перед использованием ссылки прочтите, пожалуйста Пользовательское соглашение, а также как можно дольше оставайтесь на раздаче! Для того, чтобы скачать сам торрент-файл (который видит больше источников), а также для того, чтобы поблагодарить релизера, вам необходимо зарегистрироваться. Если регистрироваться лень - вы можете также попробовать скачать релиз по нашим партнерским ссылкам ниже. Кроме того, зарегистрированным пользователям не показывается всплывающая реклама при скачивании.

[underverse.su].t48008.torrent
Трекер: Зарегистрирован   [ 04.01.2015 18:58 ]  

Статус: проверено (by Бишеп at 04.01.2015 18:58)
Поблагодарили: пока никто не поблагодарил...
Тип торрента: публичный - доступные источники с открытых трекеров: 
Размер: 379 MB (занимает 0,08 DVDR, для записи нужно 1 болванка DVDR/RW)
 
 
Похожие темы
Форум Тема Автор Торрент Отв. Посл. сооб.
Шансон (Шансон) Серия - Золотая Коллекция Шансона (10 CD) (2005) [MP3, 320 kbps CBR] 90ytr90
1 | 0

1 | 2810

37

11.10.2013 16:48

Шансон (Шансон) Сергей Наговицын - Лучшие песни (Новая коллекция) (2003) [MP3, 320 kbps CBR] Rodger23
6 | 1

0 | 2595

37

23.05.2014 04:49

Шансон (Шансон) Сергей Славянский - Стрела любви (2013) [MP3, 320 kbps CBR] Rodger23
0 | 0

0 | 1979

16

23.05.2014 06:10

Шансон (Шансон) Сергей Трофимов (Трофим) - Коллекция альбомов [24 CD] (1993-2007) [MP3, 320 kbps CBR] Sheamus666
2 | 0

0 | 1230

15

14.08.2016 11:57

Шансон (Lossless) (Шансон) Слава Вольный - Gulag Song (2002) [FLAC (Image+.CUE), Lossless] Бишеп
1 | 0

0 | 2173

0

27.04.2012 04:38

Шансон (Lossless) (Шансон) Сергей Трофимов - Сорокапяточка (2011) [FLAC (Image+.CUE), Lossless] Бишеп
5 | 0

0 | 1912

9

27.11.2013 05:14

Шансон (Lossless) (Шансон) Сергей Трофимов - Чёрное и Белое (2014) [FLAC (Tracks+.CUE), Lossless] Бишеп
3 | 0

0 | 1212

16

07.04.2014 05:49

Шансон (Lossless) (Шансон) Сергей Трофимов - Я скучаю по тебе (2011) [FLAC (Image+.CUE), Lossless] Бишеп
1 | 1

1 | 1026

10

22.06.2014 21:29

Шансон (Lossless) (Шансон) Сергей Наговицын - Серия «Super Hits Collection. 20 лучших песен» (2013) [FLAC (Image+.CUE), Lossless] Бишеп
2 | 1

0 | 1548

14

06.05.2014 06:18

Шансон (Lossless) (Шансон) Сергей Трофимов - Золотые хиты (2011) [FLAC (Image+.CUE), Lossless] Бишеп
9 | 0

0 | 1279

16

26.10.2014 16:29


Яндекс.Метрика powered by Sphinx


В Н И М А Н И Е
Сайт не распространяет и не хранит электронные версии произведений, а лишь бесплатно и без коммерческой выгоды (не требуя взамен платы,
SMS и т.д.) предоставляет доступ к создаваемому пользователями каталогу ссылок на торрент-файлы, которые содержат только списки хеш-сумм.
Убедительная просьба с жалобами обращаться напрямую к пользователю, разместившему торрент файл.

Вверх