Loading...
Error

Двойная игра / Crook (Адриан Лэнгли) [2014 г., Боевик, HDRip] VO (RUS, Lord32x)

Статистика раздачи
Размер:  1,47 GB   |    Зарегистрирован:  1 год 11 месяцев   |    Скачан:  9 раз

Полного источника не было: 1 год 3 месяца

Сидов:  0  |  0 KB/s  ]   Личеров:  0  |  0 KB/s  ]

* - сиды/пиры с внешних источников

   
 
Автор Сообщение

Ведьмочка Пол:Жен

04-Янв-2015 14:54

Двойная игра / Crook


Страна: Канада
Год выпуска: 2014
Жанр: Боевик
Продолжительность: 01:31:57
Режиссёр: Адриан Лэнгли
В ролях: Адам Бич, Леа Гибсон, Билл Лэйк, Мэттью Стефиук, Луиджи Саракино, Гай Буллер, Алексис Мейтленд, Джон МакЛарен, Ричард Саттон, Шон Такер, Генри Квок, Ларри Дэй, Дэннис Лафон, Криста Морин, Чарли Эббс
Сюжет фильма:
Кто победит в этой схватке: тот, на чей стороне правда, или тот, у кого много денег? Что окажется сильнее: законы государства или законы мафии?

Озвучивание:
  • Любительский, Одноголосный, Русский [Lord32x]


Качество видео: HDRip
Формат: AVI

Видео: XviD, 720x304 (2.35:1), 23.976 fps, ~1887 Кбит/сек
Аудио: AC-3, 384 Кбит/сек, 6 Каналов, 48.0 КГц



Общее
Полное имя : \Crook.2013.L1.HDRip.avi
Формат : AVI
Формат/Информация : Audio Video Interleave
Размер файла : 1,47 Гбайт
Продолжительность : 1 ч. 31 м.
Общий поток : 2281 Кбит/сек
Программа кодирования : VirtualDubMod 1.5.10.3 | www.virtualdub-fr.org || (build 2550/release)
Библиотека кодирования : VirtualDubMod build 2550/release

Видео
Идентификатор : 0
Формат : MPEG-4 Visual
Профиль формата : Advanced Simple@L5
Параметр BVOP формата : 1
Параметр QPel формата : Нет
Параметр GMC формата : Без точки перехода
Параметр матрицы формата : Default (H.263)
Идентификатор кодека : XVID
Идентификатор кодека/Подсказка : XviD
Продолжительность : 1 ч. 31 м.
Битрейт : 1887 Кбит/сек
Ширина : 720 пикселей
Высота : 304 пикселя
Соотношение сторон : 2,35:1
Частота кадров : 23,976 кадра/сек
Цветовое пространство : YUV
Субдискретизация насыщенности : 4:2:0
Битовая глубина : 8 бит
Тип развёртки : Прогрессивная
Метод сжатия : С потерями
Бит/(Пиксели*Кадры) : 0.360
Размер потока : 1,21 Гбайт (83%)
Библиотека кодирования : XviD 1.2.1 (UTC 2008-12-04)

Аудио
Идентификатор : 1
Формат : AC-3
Формат/Информация : Audio Coding 3
Расширение режима : CM (complete main)
Параметр Endianness формата : Big
Идентификатор кодека : 2000
Продолжительность : 1 ч. 31 м.
Вид битрейта : Постоянный
Битрейт : 384 Кбит/сек
Каналы : 6 каналов
Расположение каналов : Front: L C R, Side: L R, LFE
Частота : 48,0 КГц
Битовая глубина : 16 бит
Метод сжатия : С потерями
Размер потока : 253 Мбайт (17%)
Выравнивание : Разделение по промежуткам
Продолжительность промежутка : 42 мс. (1,00 видеокадр)
Время предзагрузки промежутка : 500 мс.


picpicpicpicpic
Для увеличения картинки щелкните мышкой по превью



Этот торрент недоступен для скачивания без регистрации, однако доступен по публичной magnet-ссылке (источники с публичных трекеров). Перед использованием ссылки прочтите, пожалуйста Пользовательское соглашение, а также как можно дольше оставайтесь на раздаче! Для того, чтобы скачать сам торрент-файл (который видит больше источников), а также для того, чтобы поблагодарить релизера, вам необходимо зарегистрироваться. Если регистрироваться лень - вы можете также попробовать скачать релиз по нашим партнерским ссылкам ниже.

[underverse.su].t48004.torrent
Трекер: Зарегистрирован   [ 04.01.2015 14:54 ]  

Статус: проверено (by Ведьмочка at 04.01.2015 15:00)
Поблагодарили: пока никто не поблагодарил...
Тип торрента: публичный - доступные источники с открытых трекеров: 
Размер: 1,47 GB (занимает 0,33 DVDR, для записи нужно 1 болванка DVDR/RW)
 
 
Похожие темы
Форум Тема Автор Торрент Отв. Посл. сооб.
Зарубежное кино [DVDRip, Low-Res HDRip, и т.д.] Двойная игра / Gutshot Straight (Джастин Стил) [2014 г., боевик, триллер, BDRip] VO + Original makkol
8 | 1

0 | 473

11

23.06.2015 23:15

Зарубежное кино [HDDVDRip / BDRip / WEB-DL / HDTV 1080/720р] Двойная игра / Crook (Адриан Лэнгли) [2014 г., Боевик, BDRip 720p] VO (RUS, Lord32x) + Original (ENG) Ведьмочка
5 | 0

0 | 557

6

04.01.2015 15:45

Зарубежное кино [HDDVDRip / BDRip / WEB-DL / HDTV 1080/720р] Двойная игра / Gutshot Straight (Джастин Стил) [2014 г., боевик, триллер, BDRip 1080p] VO + Original makkol
7 | 0

0 | 403

5

23.06.2015 23:27


Яндекс.Метрика powered by Sphinx


В Н И М А Н И Е
Сайт не распространяет и не хранит электронные версии произведений, а лишь бесплатно и без коммерческой выгоды (не требуя взамен платы,
SMS и т.д.) предоставляет доступ к создаваемому пользователями каталогу ссылок на торрент-файлы, которые содержат только списки хеш-сумм.
Убедительная просьба с жалобами обращаться напрямую к пользователю, разместившему торрент файл.

Вверх