Loading...
Error

Джейми Маркс мёртв / Jamie Marks Is Dead (Картер Смит) [2014 г., Драма, WEB-DLRip] VO (RUS, Andi)

Статистика раздачи
Размер:  1,17 GB   |    Зарегистрирован:  1 год 11 месяцев   |    Скачан:  3 раза

Полного источника не было: 1 год 10 месяцев

Сидов:  0  |  0 KB/s  ]   Личеров:  0  |  0 KB/s  ]

* - сиды/пиры с внешних источников

   
 
Автор Сообщение

Ведьмочка Пол:Жен

04-Янв-2015 13:06

Джейми Маркс мёртв / Jamie Marks Is Dead


Страна: США
Год выпуска: 2014
Жанр: Драма
Продолжительность: 01:41:29
Режиссёр: Картер Смит
В ролях: Джуди Грир, Лив Тайлер, Морган Сэйлор, Камерон Монахэн, Ной Сильвер, Мэдисен Бити, Эрин Вильхельми, Ронен Рубеинштейн, Бретт ДельБуоно, Лиззи ДеКлемент
Сюжет фильма:
Зимой в небольшом городке на берегу реки находят тело юного Джейми Маркса. Адам МакКормик, пятнадцатилетний школьник, звезда местной команды по бегу, неожиданно очаровывается Джейми, мальчиком, которого толком даже никто не знал и с кем почти никто не общался.

Когда призрак Джейми начинает являться Адаму и Грейси, однокласснице, обнаружившей тело, Адам оказывается словно между двух миров.


Озвучивание:
  • Любительский, Одноголосный, Русский [Andi]

Качество видео: WEB-DLRip
Формат: AVI

Видео: DivX 5, 720x304 (2.35:1), 23.976 fps, ~1200 Кбит/сек
Аудио: AC-3, 448 Кбит/сек, 6 Каналов, 48.0 КГц



Общее
Полное имя : \Jamie.Marks.Is.Dead_2014.avi
Формат : AVI
Формат/Информация : Audio Video Interleave
Размер файла : 1,17 Гбайт
Продолжительность : 1 ч. 41 м.
Общий поток : 1657 Кбит/сек
Программа кодирования : VirtualDubMod 1.5.10.3 | www.virtualdub-fr.org || (build 2550/release)
Библиотека кодирования : VirtualDubMod build 2550/release

Видео
Идентификатор : 0
Формат : MPEG-4 Visual
Профиль формата : Advanced Simple@L5
Параметр BVOP формата : 1
Параметр QPel формата : Нет
Параметр GMC формата : Без точки перехода
Параметр матрицы формата : Default (MPEG)
Идентификатор кодека : DX50
Идентификатор кодека/Подсказка : DivX 5
Продолжительность : 1 ч. 41 м.
Битрейт : 1200 Кбит/сек
Ширина : 720 пикселей
Высота : 304 пикселя
Соотношение сторон : 2,35:1
Частота кадров : 23,976 кадра/сек
Цветовое пространство : YUV
Субдискретизация насыщенности : 4:2:0
Битовая глубина : 8 бит
Тип развёртки : Прогрессивная
Метод сжатия : С потерями
Бит/(Пиксели*Кадры) : 0.229
Размер потока : 871 Мбайт (72%)
Библиотека кодирования : XviD 1.2.1 (UTC 2008-12-04)

Аудио
Идентификатор : 1
Формат : AC-3
Формат/Информация : Audio Coding 3
Расширение режима : CM (complete main)
Параметр Endianness формата : Big
Идентификатор кодека : 2000
Продолжительность : 1 ч. 41 м.
Вид битрейта : Постоянный
Битрейт : 448 Кбит/сек
Каналы : 6 каналов
Расположение каналов : Front: L C R, Side: L R, LFE
Частота : 48,0 КГц
Битовая глубина : 16 бит
Метод сжатия : С потерями
Размер потока : 325 Мбайт (27%)
Выравнивание : Разделение по промежуткам
Продолжительность промежутка : 42 мс. (1,00 видеокадр)
Время предзагрузки промежутка : 500 мс.


picpicpicpicpic
Для увеличения картинки щелкните мышкой по превью



Этот торрент недоступен для скачивания без регистрации, однако доступен по публичной magnet-ссылке (источники с публичных трекеров). Перед использованием ссылки прочтите, пожалуйста Пользовательское соглашение, а также как можно дольше оставайтесь на раздаче! Для того, чтобы скачать сам торрент-файл (который видит больше источников), а также для того, чтобы поблагодарить релизера, вам необходимо зарегистрироваться. Если регистрироваться лень - вы можете также попробовать скачать релиз по нашим партнерским ссылкам ниже.

[underverse.su].t48001.torrent
Трекер: Зарегистрирован   [ 04.01.2015 13:06 ]  

Статус: проверено (by Ведьмочка at 04.01.2015 13:15)
Поблагодарили: пока никто не поблагодарил...
Тип торрента: публичный - доступные источники с открытых трекеров: 
Размер: 1,17 GB (занимает 0,27 DVDR, для записи нужно 1 болванка DVDR/RW)
 
 

Яндекс.Метрика powered by Sphinx


В Н И М А Н И Е
Сайт не распространяет и не хранит электронные версии произведений, а лишь бесплатно и без коммерческой выгоды (не требуя взамен платы,
SMS и т.д.) предоставляет доступ к создаваемому пользователями каталогу ссылок на торрент-файлы, которые содержат только списки хеш-сумм.
Убедительная просьба с жалобами обращаться напрямую к пользователю, разместившему торрент файл.

Вверх