Loading...
Error

Когда звери мечтают / Nar dyrene drommer (Йонас Александр Арнби) [2014 г., Ужасы, Драма, Детектив, DVDRip] DVO (RUS, А. Агапов & Г. Васюкова)

Статистика раздачи
Размер:  1,38 GB   |    Зарегистрирован:  1 год 10 месяцев   |    Скачан:  5 раз

Полного источника не было: 1 год 3 месяца

Сидов:  0  |  0 KB/s  ]   Личеров:  0  |  0 KB/s  ]

* - сиды/пиры с внешних источников

   
 
Автор Сообщение

Ведьмочка Пол:Жен

04-Янв-2015 10:27

Когда звери мечтают / Når dyrene drømmer


Страна: Дания
Год выпуска: 2014
Жанр: Ужасы, Драма, Детектив
Продолжительность: 01:21:05
Режиссёр: Йонас Александр Арнби
В ролях: Сония Суль, Ларс Миккельсен, Соня Рихтер, Якоб Офтебро, Мадс Риисом, Густав Дюэкьер Гисе, Стиг Хоффмайер, Бенджамин Бё Расмуссен, Тина Гюллинг Мортенсен, Эсбен Дальгор
Сюжет фильма:
16-летняя Мари живет в рыбацкой деревушке с отцом и серьезно больной матерью. После череды внезапных смертей Мари понимает, что с ее телом происходит что-то странное.

Озвучивание:
  • Любительский, Двухголосный, Русский [А. Агапов & Г. Васюкова]

Качество видео: DVDRip
Формат: AVI

Видео: XviD, 720x304 (2.35:1), 25.000 fps, ~1974 Кбит/сек
Аудио: AC-3, 448 Кбит/сек, 6 Каналов, 48.0 КГц



Общее
Полное имя : \When.Animals.Dream.2014.DVDRip.avi
Формат : AVI
Формат/Информация : Audio Video Interleave
Размер файла : 1,38 Гбайт
Продолжительность : 1 ч. 21 м.
Общий поток : 2432 Кбит/сек
Программа кодирования : VirtualDubMod 1.5.10.2 (build 2542/release)
Библиотека кодирования : VirtualDubMod build 2542/release

Видео
Идентификатор : 0
Формат : MPEG-4 Visual
Профиль формата : Advanced Simple@L5
Параметр BVOP формата : 2
Параметр QPel формата : Нет
Параметр GMC формата : Без точки перехода
Параметр матрицы формата : Default (H.263)
Идентификатор кодека : XVID
Идентификатор кодека/Подсказка : XviD
Продолжительность : 1 ч. 21 м.
Битрейт : 1974 Кбит/сек
Ширина : 720 пикселей
Высота : 304 пикселя
Соотношение сторон : 2,35:1
Частота кадров : 25,000 кадров/сек
Цветовое пространство : YUV
Субдискретизация насыщенности : 4:2:0
Битовая глубина : 8 бит
Тип развёртки : Прогрессивная
Метод сжатия : С потерями
Бит/(Пиксели*Кадры) : 0.361
Размер потока : 1,12 Гбайт (81%)
Библиотека кодирования : XviD 1.2.1 (UTC 2008-12-04)

Аудио
Идентификатор : 1
Формат : AC-3
Формат/Информация : Audio Coding 3
Расширение режима : CM (complete main)
Параметр Endianness формата : Big
Идентификатор кодека : 2000
Продолжительность : 1 ч. 21 м.
Вид битрейта : Постоянный
Битрейт : 448 Кбит/сек
Каналы : 6 каналов
Расположение каналов : Front: L C R, Side: L R, LFE
Частота : 48,0 КГц
Битовая глубина : 16 бит
Метод сжатия : С потерями
Размер потока : 260 Мбайт (18%)
Выравнивание : Разделение по промежуткам
Продолжительность промежутка : 40 мс. (1,00 видеокадр)
Время предзагрузки промежутка : 500 мс.


picpicpicpicpic
Для увеличения картинки щелкните мышкой по превью



Этот торрент недоступен для скачивания без регистрации, однако доступен по публичной magnet-ссылке (источники с публичных трекеров). Перед использованием ссылки прочтите, пожалуйста Пользовательское соглашение, а также как можно дольше оставайтесь на раздаче! Для того, чтобы скачать сам торрент-файл (который видит больше источников), а также для того, чтобы поблагодарить релизера, вам необходимо зарегистрироваться. Если регистрироваться лень - вы можете также попробовать скачать релиз по нашим партнерским ссылкам ниже.

[underverse.su].t47997.torrent
Трекер: Зарегистрирован   [ 04.01.2015 10:27 ]  

Статус: проверено (by Ведьмочка at 04.01.2015 10:28)
Поблагодарили: пока никто не поблагодарил...
Тип торрента: публичный - доступные источники с открытых трекеров: 
Размер: 1,38 GB (занимает 0,31 DVDR, для записи нужно 1 болванка DVDR/RW)
 
 
Похожие темы
Форум Тема Автор Торрент Отв. Посл. сооб.
Зарубежное кино [DVDRip, Low-Res HDRip, и т.д.] Когда звери мечтают / Nar dyrene drommer (Йонас Александр Арнби) [2014 г., ужасы, драма, DVDRip-AVC] DVO [Антон Агапов и Галина Васюкова] + Original Паукан
17 | 0

0 | 519

19

10.12.2014 16:00


Яндекс.Метрика powered by Sphinx


В Н И М А Н И Е
Сайт не распространяет и не хранит электронные версии произведений, а лишь бесплатно и без коммерческой выгоды (не требуя взамен платы,
SMS и т.д.) предоставляет доступ к создаваемому пользователями каталогу ссылок на торрент-файлы, которые содержат только списки хеш-сумм.
Убедительная просьба с жалобами обращаться напрямую к пользователю, разместившему торрент файл.

Вверх