Loading...
Error

Виновный в романе / Guilty of Romance / Koi no tsumi (Сион Соно) [2014 г., Эротика, Драма, Триллер, HDRip] DVO (RUS, Влад & Снежинка)

Статистика раздачи
Размер:  1,46 GB   |    Зарегистрирован:  1 год 10 месяцев   |    Скачан:  28 раз

Полного источника не было: 2 дня 23 часа

Сидов:  0  |  0 KB/s  ]   Личеров:  0  |  0 KB/s  ]

* - сиды/пиры с внешних источников

   
 
Автор Сообщение

Ведьмочка Пол:Жен

04-Янв-2015 09:31

Виновный в романе / Guilty of Romance / Koi no tsumi
«Love Is Hell»


Страна: Япония
Год выпуска: 2011
Жанр: Эротика, Драма, Триллер
Продолжительность: 01:53:18
Режиссёр: Сион Соно
В ролях: Мики Мизуно, Макото Тогаси, Мегуми Кагуразака, Казуя Кодрима, Сатоси Никайдо, Рюи Кобаяси, Синго Гоцудзи, Мотоки Фуками, Тика Утида, Мари Матида
Сюжет фильма:
Ицуми замужем за известным писателем романтического жанра, но их семейная жизнь выглядит как повесть, лишённая романтики. Однажды она решает последовать своим желаниям и соглашается обнажённой имитировать секс перед камерой. Остановится ли Ицуми в своих желаниях и удастся ли ей совмещать новые занятия с ролью заботливой жены?

Озвучивание:
  • Любительский, Двухголосный, Русский [Влад & Снежинка]

Качество видео: HDRip
Формат: AVI

Видео: XviD, 720x384 (1.85:1), 24.000 fps, ~1648 Кбит/сек
Аудио: AC-3, 192 Кбит/сек, 2 Канала, 48.0 КГц



Общее
Полное имя : \Vinovnyj.v.romane.2011.L2.HDRip.avi
Формат : AVI
Формат/Информация : Audio Video Interleave
Размер файла : 1,46 Гбайт
Продолжительность : 1 ч. 53 м.
Общий поток : 1849 Кбит/сек
Программа кодирования : VirtualDubMod 1.5.10.3 | www.virtualdub-fr.org || (build 2550/release)
Библиотека кодирования : VirtualDubMod build 2550/release

Видео
Идентификатор : 0
Формат : MPEG-4 Visual
Профиль формата : Advanced Simple@L5
Параметр BVOP формата : 2
Параметр QPel формата : Нет
Параметр GMC формата : Без точки перехода
Параметр матрицы формата : Default (MPEG)
Идентификатор кодека : XVID
Идентификатор кодека/Подсказка : XviD
Продолжительность : 1 ч. 53 м.
Битрейт : 1648 Кбит/сек
Ширина : 720 пикселей
Высота : 384 пикселя
Соотношение сторон : 1,85:1
Частота кадров : 24,000 кадра/сек
Цветовое пространство : YUV
Субдискретизация насыщенности : 4:2:0
Битовая глубина : 8 бит
Тип развёртки : Прогрессивная
Метод сжатия : С потерями
Бит/(Пиксели*Кадры) : 0.248
Размер потока : 1,30 Гбайт (89%)
Библиотека кодирования : XviD 1.2.1 (UTC 2008-12-04)

Аудио
Идентификатор : 1
Формат : AC-3
Формат/Информация : Audio Coding 3
Расширение режима : CM (complete main)
Параметр Endianness формата : Big
Идентификатор кодека : 2000
Продолжительность : 1 ч. 53 м.
Вид битрейта : Постоянный
Битрейт : 192 Кбит/сек
Каналы : 2 канала
Расположение каналов : Front: L R
Частота : 48,0 КГц
Битовая глубина : 16 бит
Метод сжатия : С потерями
Размер потока : 155 Мбайт (10%)
Выравнивание : Разделение по промежуткам
Продолжительность промежутка : 42 мс. (1,00 видеокадр)
Время предзагрузки промежутка : 500 мс.


picpicpicpicpic
Для увеличения картинки щелкните мышкой по превью



Этот торрент недоступен для скачивания без регистрации, однако доступен по публичной magnet-ссылке (источники с публичных трекеров). Перед использованием ссылки прочтите, пожалуйста Пользовательское соглашение, а также как можно дольше оставайтесь на раздаче! Для того, чтобы скачать сам торрент-файл (который видит больше источников), а также для того, чтобы поблагодарить релизера, вам необходимо зарегистрироваться. Если регистрироваться лень - вы можете также попробовать скачать релиз по нашим партнерским ссылкам ниже.

[underverse.su].t47995.torrent
Трекер: Зарегистрирован   [ 04.01.2015 09:31 ]  

Статус: проверено (by Ведьмочка at 04.01.2015 09:55)
Поблагодарили: 3 человека
Тип торрента: публичный - доступные источники с открытых трекеров: 
Размер: 1,46 GB (занимает 0,33 DVDR, для записи нужно 1 болванка DVDR/RW)
 
 
Похожие темы
Форум Тема Автор Торрент Отв. Посл. сооб.
Зарубежное кино [HDDVDRip / BDRip / WEB-DL / HDTV 1080/720р] Виновный в романе / Guilty of Romance / Koi no tsumi (Сион Соно) [2014 г., Эротика, Драма, Триллер, BDRip 720p] DVO (RUS, Влад & Снежинка) + Original (JPN) + Subs (RUS, ENG) Ведьмочка
0 | 0

0 | 384

5

04.01.2015 09:03

Зарубежное кино [HDDVDRip / BDRip / WEB-DL / HDTV 1080/720р] Виновный в романе / Guilty of Romance / Koi no tsumi (Сион Соно) [2014 г., Эротика, Драма, Триллер, BDRip 1080p] DVO (RUS, Влад & Снежинка) + Original (JPN) + Subs (RUS, ENG) Ведьмочка
1 | 0

0 | 474

11

04.01.2015 11:34


Яндекс.Метрика powered by Sphinx


В Н И М А Н И Е
Сайт не распространяет и не хранит электронные версии произведений, а лишь бесплатно и без коммерческой выгоды (не требуя взамен платы,
SMS и т.д.) предоставляет доступ к создаваемому пользователями каталогу ссылок на торрент-файлы, которые содержат только списки хеш-сумм.
Убедительная просьба с жалобами обращаться напрямую к пользователю, разместившему торрент файл.

Вверх