Loading...
Error

К Элизе / Para Elisa (Джуанра Фернандес) [2013 г., Триллер, WEB-DLRip] MVO (RUS) + Original (ESP)

Статистика раздачи
Размер:  1,36 GB   |    Зарегистрирован:  1 год 11 месяцев   |    Скачан:  5 раз

Полного источника не было: 1 год 9 месяцев

Сидов:  0  |  0 KB/s  ]   Личеров:  0  |  0 KB/s  ]

* - сиды/пиры с внешних источников

   
 
Автор Сообщение

Ведьмочка Пол:Жен

04-Янв-2015 07:30

К Элизе / Para Elisa


Страна: Испания
Год выпуска: 2013
Жанр: Триллер
Продолжительность: 01:14:30
Режиссёр: Джуанра Фернандес
В ролях: Ана Турпин, Она Косамикела, Луиса Гаваса, Хесус Каба, Шила Понце, Хавьер Перейра, Пеп Антон Муньос, Энрике Вильен, Пабло Винья, Фредерик Томас
Сюжет фильма:
Сюжет фильма крутится вокруг студентки Анны, которая нуждается в деньгах для оплаты своей учебы. Она обращается по объявлению в семью, которой требуется нянька. На работу ее берут, только вот в качестве живой куклы для, видимо не совсем здоровой, Элизы. А если кукла себя плохо ведет, то наказание не заставит себя долго ждать.

Озвучивание:
  • Профессиональный, Многоголосный, Русский
  • Оригинал, Испанский


Качество видео: WEB-DLRip
Формат: AVI

Видео: XviD, 720x304 (2.35:1), 25.000 fps, 2041 Кбит/сек
Аудио #1: AC-3, 448 Кбит/сек, 6 Каналов, 48.0 КГц
Аудио #2: AC-3, 224 Кбит/сек, 2 Канала, 48.0 КГц



Общее
Полное имя : \К Элизе.2013.P.WEBDLRip.avi
Формат : AVI
Формат/Информация : Audio Video Interleave
Размер файла : 1,36 Гбайт
Продолжительность : 1 ч. 11 м.
Общий поток : 2728 Кбит/сек
Программа кодирования : VirtualDubMod 1.5.10.2 (build 2540/release)
Библиотека кодирования : VirtualDubMod build 2540/release

Видео
Идентификатор : 0
Формат : MPEG-4 Visual
Профиль формата : Advanced Simple@L5
Параметр BVOP формата : 2
Параметр QPel формата : Нет
Параметр GMC формата : Без точки перехода
Параметр матрицы формата : Default (MPEG)
Идентификатор кодека : XVID
Идентификатор кодека/Подсказка : XviD
Продолжительность : 1 ч. 11 м.
Битрейт : 2041 Кбит/сек
Ширина : 720 пикселей
Высота : 304 пикселя
Соотношение сторон : 2,35:1
Частота кадров : 25,000 кадров/сек
Цветовое пространство : YUV
Субдискретизация насыщенности : 4:2:0
Битовая глубина : 8 бит
Тип развёртки : Прогрессивная
Метод сжатия : С потерями
Бит/(Пиксели*Кадры) : 0.373
Размер потока : 1,02 Гбайт (75%)
Библиотека кодирования : XviD 1.2.1 (UTC 2008-12-04)

Аудио #1
Идентификатор : 1
Формат : AC-3
Формат/Информация : Audio Coding 3
Расширение режима : CM (complete main)
Параметр Endianness формата : Big
Идентификатор кодека : 2000
Продолжительность : 1 ч. 11 м.
Вид битрейта : Постоянный
Битрейт : 448 Кбит/сек
Каналы : 6 каналов
Расположение каналов : Front: L C R, Side: L R, LFE
Частота : 48,0 КГц
Битовая глубина : 16 бит
Метод сжатия : С потерями
Размер потока : 229 Мбайт (16%)
Выравнивание : Разделение по промежуткам
Продолжительность промежутка : 40 мс. (1,00 видеокадр)
Время предзагрузки промежутка : 500 мс.

Аудио #2
Идентификатор : 2
Формат : AC-3
Формат/Информация : Audio Coding 3
Расширение режима : CM (complete main)
Параметр Endianness формата : Big
Идентификатор кодека : 2000
Продолжительность : 1 ч. 11 м.
Вид битрейта : Постоянный
Битрейт : 224 Кбит/сек
Каналы : 2 канала
Расположение каналов : Front: L R
Частота : 48,0 КГц
Битовая глубина : 16 бит
Метод сжатия : С потерями
Размер потока : 115 Мбайт (8%)
Выравнивание : Разделение по промежуткам
Продолжительность промежутка : 40 мс. (1,00 видеокадр)
Время предзагрузки промежутка : 500 мс.


picpicpicpicpic
Для увеличения картинки щелкните мышкой по превью



Этот торрент недоступен для скачивания без регистрации, однако доступен по публичной magnet-ссылке (источники с публичных трекеров). Перед использованием ссылки прочтите, пожалуйста Пользовательское соглашение, а также как можно дольше оставайтесь на раздаче! Для того, чтобы скачать сам торрент-файл (который видит больше источников), а также для того, чтобы поблагодарить релизера, вам необходимо зарегистрироваться. Если регистрироваться лень - вы можете также попробовать скачать релиз по нашим партнерским ссылкам ниже.

[underverse.su].t47992.torrent
Трекер: Зарегистрирован   [ 04.01.2015 07:30 ]  

Статус: проверено (by Ведьмочка at 04.01.2015 08:06)
Поблагодарили: 1 человек
Тип торрента: публичный - доступные источники с открытых трекеров: 
Размер: 1,36 GB (занимает 0,31 DVDR, для записи нужно 1 болванка DVDR/RW)
 
 
Похожие темы
Форум Тема Автор Торрент Отв. Посл. сооб.
Зарубежное кино [DVDRip, Low-Res HDRip, и т.д.] К Элизе / Para Elisa (Джуанра Фернандес) [2013 г., Триллер, DVDRip] MVO (RUS) + Original (ESP) Ведьмочка
32 | 0

0 | 433

7

22.08.2014 13:29

Зарубежное кино [DVDRip, Low-Res HDRip, и т.д.] К Элизе / Para Elisa (Жуанра Фернандес) [2013 г., триллер, HDTVRip-AVC] MVO Паукан
9 | 0

1 | 3099

9

22.12.2014 17:20


Яндекс.Метрика powered by Sphinx


В Н И М А Н И Е
Сайт не распространяет и не хранит электронные версии произведений, а лишь бесплатно и без коммерческой выгоды (не требуя взамен платы,
SMS и т.д.) предоставляет доступ к создаваемому пользователями каталогу ссылок на торрент-файлы, которые содержат только списки хеш-сумм.
Убедительная просьба с жалобами обращаться напрямую к пользователю, разместившему торрент файл.

Вверх