Loading...
Error

Страсть вне закона / Tamanchey (Сурьявир Сингх Бхуллар) [2014 г., Мелодрама, Криминал, WEB-DLRip] MVO (RUS, Zee TV)

Статистика раздачи
Размер:  1,45 GB   |    Зарегистрирован:  1 год 11 месяцев   |    Скачан:  4 раза

Полного источника не было: 1 год 10 месяцев

Сидов:  0  |  0 KB/s  ]   Личеров:  0  |  0 KB/s  ]

* - сиды/пиры с внешних источников

   
 
Автор Сообщение

Ведьмочка Пол:Жен

04-Янв-2015 07:21

Страсть вне закона / Tamanchey
«Pyar Me Dil Pe Mar De Goli»


Страна: Индия
Год выпуска: 2014
Жанр: Мелодрама, Криминал
Продолжительность: 01:53:44
Режиссёр: Сурьявир Сингх Бхуллар
В ролях: Никхил Двиведи, Рича Чадда, Махеш Балрадж, Дамандип Сингх
Сюжет фильма:
Драматическая история любви, полная страсти и искушений, ведь влюбленные плюс ко всему еще и преступники, которые объявлены вне закона.

Озвучивание:
  • Профессиональный, Многоголосный, Русский [Zee TV]


Качество видео: WEB-DLRip
Формат: AVI

Видео: XviD, 720x304 (2.35:1), 24.000 fps, ~1619 Кбит/сек
Аудио: AC-3, 192 Кбит/сек, 2 Канала, 48.0 КГц



Общее
Полное имя : \Strast.Vne.Zakona.2014.WEB-DLRip.avi
Формат : AVI
Формат/Информация : Audio Video Interleave
Размер файла : 1,45 Гбайт
Продолжительность : 1 ч. 53 м.
Общий поток : 1821 Кбит/сек
Название фильма : Tamanchey.2014.WEB-DLRip.XviD.BwTorrents-soso4eg
Режиссёр : soso4eg
Программа кодирования : VirtualDubMod 1.5.10.3 | www.virtualdub-fr.org || (build 2550/release)
Формат оригинала/Имя : Hindi
Правообладатель : BwTorrents
Примечание : пер. Red Media

Видео
Идентификатор : 0
Формат : MPEG-4 Visual
Профиль формата : Advanced Simple@L5
Параметр BVOP формата : 2
Параметр QPel формата : Нет
Параметр GMC формата : Без точки перехода
Параметр матрицы формата : Default (H.263)
Идентификатор кодека : XVID
Идентификатор кодека/Подсказка : XviD
Продолжительность : 1 ч. 53 м.
Битрейт : 1619 Кбит/сек
Ширина : 720 пикселей
Высота : 304 пикселя
Соотношение сторон : 2,35:1
Частота кадров : 24,000 кадра/сек
Цветовое пространство : YUV
Субдискретизация насыщенности : 4:2:0
Битовая глубина : 8 бит
Тип развёртки : Прогрессивная
Метод сжатия : С потерями
Бит/(Пиксели*Кадры) : 0.308
Размер потока : 1,29 Гбайт (89%)
Библиотека кодирования : XviD 1.2.1 (UTC 2008-12-04)

Аудио
Идентификатор : 1
Формат : AC-3
Формат/Информация : Audio Coding 3
Расширение режима : CM (complete main)
Параметр Endianness формата : Big
Идентификатор кодека : 2000
Продолжительность : 1 ч. 53 м.
Вид битрейта : Постоянный
Битрейт : 192 Кбит/сек
Каналы : 2 канала
Расположение каналов : Front: L R
Частота : 48,0 КГц
Битовая глубина : 16 бит
Метод сжатия : С потерями
Размер потока : 156 Мбайт (11%)
Выравнивание : Разделение по промежуткам
Продолжительность промежутка : 42 мс. (1,00 видеокадр)
Время предзагрузки промежутка : 500 мс.


picpicpicpicpic
Для увеличения картинки щелкните мышкой по превью



Этот торрент недоступен для скачивания без регистрации, однако доступен по публичной magnet-ссылке (источники с публичных трекеров). Перед использованием ссылки прочтите, пожалуйста Пользовательское соглашение, а также как можно дольше оставайтесь на раздаче! Для того, чтобы скачать сам торрент-файл (который видит больше источников), а также для того, чтобы поблагодарить релизера, вам необходимо зарегистрироваться. Если регистрироваться лень - вы можете также попробовать скачать релиз по нашим партнерским ссылкам ниже.

[underverse.su].t47991.torrent
Трекер: Зарегистрирован   [ 04.01.2015 07:21 ]  

Статус: проверено (by Ведьмочка at 04.01.2015 07:54)
Поблагодарили: пока никто не поблагодарил...
Тип торрента: публичный - доступные источники с открытых трекеров: 
Размер: 1,45 GB (занимает 1/3 DVDR, для записи нужно 1 болванка DVDR/RW)
 
 

Яндекс.Метрика powered by Sphinx


В Н И М А Н И Е
Сайт не распространяет и не хранит электронные версии произведений, а лишь бесплатно и без коммерческой выгоды (не требуя взамен платы,
SMS и т.д.) предоставляет доступ к создаваемому пользователями каталогу ссылок на торрент-файлы, которые содержат только списки хеш-сумм.
Убедительная просьба с жалобами обращаться напрямую к пользователю, разместившему торрент файл.

Вверх