Loading...
Error

Мужчины, женщины и дети / Men, Women & Children (Джейсон Райтман) [2014 г., Драма, Комедия, HDRip] MVO (RUS, Gears Media) + Original (ENG)

Статистика раздачи
Размер:  2,05 GB   |    Зарегистрирован:  1 год 11 месяцев   |    Скачан:  13 раз

Полного источника не было: 20 дней

Сидов:  0  |  0 KB/s  ]   Личеров:  0  |  0 KB/s  ]

* - сиды/пиры с внешних источников

   
 
Автор Сообщение

Ведьмочка Пол:Жен

04-Янв-2015 06:49

Мужчины, женщины и дети / Men, Women & Children


Страна: США
Год выпуска: 2014
Жанр: Драма, Комедия
Продолжительность: 01:59:56
Режиссёр: Джейсон Райтман
В ролях: Адам Сэндлер, Деннис Хэйсберт, Эмма Томпсон, Дж.К. Симмонс, Дженнифер Гарнер, Дин Норрис, Джейсон Дуглас, Джуди Грир, Гэри Тиг, Джефф Вицке
Сюжет фильма:
История о группе подростков и их родителях, которые пытаются понять, как интернет изменил их отношения, их связь, самооценку и любовь друг к другу.

Озвучивание:
  • Профессиональный, Многоголосный, Русский [Gears Media]
  • Оригинал, Английский


Качество видео: HDRip
Формат: AVI

Видео: XviD, 720x400 (16:9), 23.976 fps, ~1797 Кбит/сек
Аудио #1: AC-3, 256 Кбит/сек, 2 Канала, 48.0 КГц
Аудио #2: AC-3, 384 Кбит/сек, 6 Каналов, 48.0 КГц



Общее
Полное имя : \Men women and children. 2014. HDRip.avi
Формат : AVI
Формат/Информация : Audio Video Interleave
Профиль формата : OpenDML
Размер файла : 2,05 Гбайт
Продолжительность : 1 ч. 59 м.
Общий поток : 2455 Кбит/сек
Программа кодирования : VirtualDubMod 1.5.10.2 (build 2540/release)
Библиотека кодирования : VirtualDubMod build 2540/release

Видео
Идентификатор : 0
Формат : MPEG-4 Visual
Профиль формата : Advanced Simple@L5
Параметр BVOP формата : 2
Параметр QPel формата : Нет
Параметр GMC формата : Без точки перехода
Параметр матрицы формата : Default (MPEG)
Идентификатор кодека : XVID
Идентификатор кодека/Подсказка : XviD
Продолжительность : 1 ч. 59 м.
Битрейт : 1797 Кбит/сек
Ширина : 720 пикселей
Высота : 400 пикселей
Соотношение сторон : 16:9
Частота кадров : 23,976 кадра/сек
Цветовое пространство : YUV
Субдискретизация насыщенности : 4:2:0
Битовая глубина : 8 бит
Тип развёртки : Прогрессивная
Метод сжатия : С потерями
Бит/(Пиксели*Кадры) : 0.260
Размер потока : 1,50 Гбайт (73%)
Библиотека кодирования : XviD 1.2.1 (UTC 2008-12-04)

Аудио #1
Идентификатор : 1
Формат : AC-3
Формат/Информация : Audio Coding 3
Расширение режима : CM (complete main)
Параметр Endianness формата : Big
Идентификатор кодека : 2000
Продолжительность : 1 ч. 59 м.
Вид битрейта : Постоянный
Битрейт : 256 Кбит/сек
Каналы : 2 канала
Расположение каналов : Front: L R
Частота : 48,0 КГц
Битовая глубина : 16 бит
Метод сжатия : С потерями
Размер потока : 219 Мбайт (10%)
Выравнивание : Разделение по промежуткам
Продолжительность промежутка : 42 мс. (1,00 видеокадр)
Время предзагрузки промежутка : 500 мс.

Аудио #2
Идентификатор : 2
Формат : AC-3
Формат/Информация : Audio Coding 3
Расширение режима : CM (complete main)
Параметр Endianness формата : Big
Идентификатор кодека : 2000
Продолжительность : 1 ч. 59 м.
Вид битрейта : Постоянный
Битрейт : 384 Кбит/сек
Каналы : 6 каналов
Расположение каналов : Front: L C R, Side: L R, LFE
Частота : 48,0 КГц
Битовая глубина : 16 бит
Метод сжатия : С потерями
Размер потока : 328 Мбайт (16%)
Выравнивание : Разделение по промежуткам
Продолжительность промежутка : 42 мс. (1,00 видеокадр)
Время предзагрузки промежутка : 500 мс.


picpicpicpicpic
Для увеличения картинки щелкните мышкой по превью



Этот торрент недоступен для скачивания без регистрации, однако доступен по публичной magnet-ссылке (источники с публичных трекеров). Перед использованием ссылки прочтите, пожалуйста Пользовательское соглашение, а также как можно дольше оставайтесь на раздаче! Для того, чтобы скачать сам торрент-файл (который видит больше источников), а также для того, чтобы поблагодарить релизера, вам необходимо зарегистрироваться. Если регистрироваться лень - вы можете также попробовать скачать релиз по нашим партнерским ссылкам ниже.

[underverse.su].t47989.torrent
Трекер: Зарегистрирован   [ 04.01.2015 06:49 ]  

Статус: проверено (by Ведьмочка at 04.01.2015 06:49)
Поблагодарили: 1 человек
Тип торрента: публичный - доступные источники с открытых трекеров: 
Размер: 2,05 GB (занимает 0,47 DVDR, для записи нужно 1 болванка DVDR/RW)
 
 
Похожие темы
Форум Тема Автор Торрент Отв. Посл. сооб.
Зарубежное кино [DVDRip, Low-Res HDRip, и т.д.] Мужчины, женщины и дети / Men, Women & Children (Джейсон Рейтмен / Jason Reitman) [2014 г., драма, комедия, WEB-DLRip] MVO (Gears Media) 90ytr90
4 | 0

0 | 409

16

01.01.2015 19:38

T Зарубежное кино [DVDRip, Low-Res HDRip, и т.д.] Мужчины, женщины и дети / Men, Women & Children (Джейсон Рейтмен / Jason Reitman) [2014 г., драма, комедия, HDRip] Dub (iTunes) + Original (Eng) 90ytr90
1 | 0

0 | 350

2

26.01.2015 09:12

Зарубежное кино [DVDRip, Low-Res HDRip, и т.д.] Мужчины, женщины и дети / Men, Women & Children (Джейсон Райтман) [2014 г., Драма, Комедия, BDRip-AVC] MVO (RUS, Gears Media) + Original (ENG) + Subs (ENG) Ведьмочка
16 | 0

0 | 302

4

31.01.2015 09:29

Зарубежное кино [DVDRip, Low-Res HDRip, и т.д.] Мужчины, женщины и дети / Men, Women & Children (Джейсон Рейтмен / Jason Reitman) [2014 г., драма, комедия, HDRip] Dub 90ytr90
1 | 0

0 | 385

2

28.02.2015 18:41

Зарубежное кино [DVDRip, Low-Res HDRip, и т.д.] Мужчины, женщины и дети / Men, Women & Children (Джейсон Рейтмен / Jason Reitman) [2014 г., драма, комедия, HDRip] Dub 90ytr90
6 | 0

0 | 409

3

28.02.2015 18:45

Зарубежное кино [DVDRip, Low-Res HDRip, и т.д.] Мужчины, женщины и дети / Men, Women & Children (Джейсон Рейтмен / Jason Reitman) [2014 г., драма, комедия, BDRip-AVC] Dub + Original (Eng) + Subs 90ytr90
3 | 0

0 | 430

6

28.02.2015 18:51

Discovery Мужчины, женщины, природа / Man, Woman, Wild (1 сезон: 1-7 серий из 7) [2015 г., документальный, познавательный, экстрим, HDTVRip] DVO ARI71
1 | 1

1 | 2259

2

22.03.2016 12:20

# Зарубежное кино [HDDVDRip / BDRip / WEB-DL / HDTV 1080/720р] Мужчины, женщины и дети / Men, Women & Children (Джейсон Райтман) [2014 г., Драма, Комедия, WEB-DL 720p] MVO (RUS, Gears Media) Ведьмочка
49 | 2

0 | 808

17

25.12.2014 08:42

Зарубежное кино [HDDVDRip / BDRip / WEB-DL / HDTV 1080/720р] Мужчины, женщины и дети / Men, Women & Children (Джейсон Рейтмен / Jason Reitman) [2014 г., драма, комедия, BDRip 720p] Dub + Original (Eng) + Sub (Rus, Eng) 90ytr90
2 | 0

0 | 460

0

28.02.2015 19:01

Зарубежное кино [HDDVDRip / BDRip / WEB-DL / HDTV 1080/720р] Мужчины, женщины и дети / Men, Women & Children (Джейсон Рейтмен / Jason Reitman) [2014 г., драма, комедия, BDRip 1080p] Dub + Original (Eng) + Sub (Rus, Eng) 90ytr90
1 | 1

0 | 464

4

28.02.2015 19:06


Яндекс.Метрика powered by Sphinx


В Н И М А Н И Е
Сайт не распространяет и не хранит электронные версии произведений, а лишь бесплатно и без коммерческой выгоды (не требуя взамен платы,
SMS и т.д.) предоставляет доступ к создаваемому пользователями каталогу ссылок на торрент-файлы, которые содержат только списки хеш-сумм.
Убедительная просьба с жалобами обращаться напрямую к пользователю, разместившему торрент файл.

Вверх