Loading...
Error

Счастливый финал / Happy Ending (Кришна Д., Радж Нидимору) [2014 г., Мелодрама, Комедия, DVDRip] DVO (RUS, Влад & Снежинка)

Статистика раздачи
Размер:  1,46 GB   |    Зарегистрирован:  1 год 11 месяцев   |    Скачан:  6 раз

Полного источника не было: 11 месяцев

Сидов:  0  |  0 KB/s  ]   Личеров:  0  |  0 KB/s  ]

* - сиды/пиры с внешних источников

   
 
Автор Сообщение

Ведьмочка Пол:Жен

04-Янв-2015 06:35

Счастливый финал / Happy Ending


Страна: Индия
Год выпуска: 2014
Жанр: Мелодрама, Комедия
Продолжительность: 02:09:51
Режиссёр: Кришна Д., Радж Нидимору
В ролях: Саиф Али Кхан, Илеана, Калки Коечлин, Ранвир Шори, Рахул Нат, Шивани Танксале, Говинда, Прити Зинта, Карина Капур
Сюжет фильма:
«Я люблю тебя» - именно этих трёх страшных слов боится вечный холостяк Юди. Самые идеальные отношения для него – это ни к чему не ведущие и ни к чему не обязывающие. Но у его девушки Вишакхи, присосавшейся к нему, как пиявка и по пятам преследующей его, совсем иное мнение об этом. Её Юдик-Чудик, должен 24 часа в сутки находится только рядом с ней. Пытаясь избежать чрезмерной навязчивости ненормальной подружки, Юди берётся за первую попавшуюся работу, в которой он должен написать сценарий для помешанного на ромкомах Армана-джи. Ко всему вдобавок, в писательской индустрии у Юди появляется обаятельная конкурентка Ачал, которая путём афёры, начинает наперебой отбивать у него контракты. Юди решает сдружиться с ней, дабы вывести мошенницу на чистую воду. Он начинает свою историю. Кто знает, может у неё будет счастливый конец?

Озвучивание:
  • Любительский, Двухголосный, Русский [Влад & Снежинка]


Качество видео: DVDRip
Формат: AVI

Видео: XviD, 672x288 (2.35:1), 23.976 fps, ~1406 Кбит/сек
Аудио: AC-3, 192 Кбит/сек, 2 Канала, 48.0 КГц



Общее
Полное имя : \Schastliviy.konec.2014.DVDRip.avi
Формат : AVI
Формат/Информация : Audio Video Interleave
Размер файла : 1,46 Гбайт
Продолжительность : 2 ч. 9 м.
Общий поток : 1607 Кбит/сек
Название фильма : Happy.Ending.2014.DVDRip.XviD.LDVO-soso4eg
Режиссёр : soso4eg
Программа кодирования : VirtualDubMod 1.5.10.3 | www.virtualdub-fr.org || (build 2550/release)
Формат оригинала/Имя : Hindi
Правообладатель : специально для BitTorrent трекер *другой трекер* (ex *другой трекер*)
Примечание : пер.LDVO (Колобок) по суб. Honey&Haseena

Видео
Идентификатор : 0
Формат : MPEG-4 Visual
Профиль формата : Advanced Simple@L5
Параметр BVOP формата : 2
Параметр QPel формата : Нет
Параметр GMC формата : Без точки перехода
Параметр матрицы формата : Default (H.263)
Идентификатор кодека : XVID
Идентификатор кодека/Подсказка : XviD
Продолжительность : 2 ч. 9 м.
Битрейт : 1406 Кбит/сек
Ширина : 672 пикселя
Высота : 288 пикселей
Соотношение сторон : 2,35:1
Частота кадров : 23,976 кадра/сек
Цветовое пространство : YUV
Субдискретизация насыщенности : 4:2:0
Битовая глубина : 8 бит
Тип развёртки : Прогрессивная
Метод сжатия : С потерями
Бит/(Пиксели*Кадры) : 0.303
Размер потока : 1,28 Гбайт (87%)
Библиотека кодирования : XviD 1.2.1 (UTC 2008-12-04)

Аудио
Идентификатор : 1
Формат : AC-3
Формат/Информация : Audio Coding 3
Расширение режима : CM (complete main)
Параметр Endianness формата : Big
Идентификатор кодека : 2000
Продолжительность : 2 ч. 9 м.
Вид битрейта : Постоянный
Битрейт : 192 Кбит/сек
Каналы : 2 канала
Расположение каналов : Front: L R
Частота : 48,0 КГц
Битовая глубина : 16 бит
Метод сжатия : С потерями
Размер потока : 178 Мбайт (12%)
Выравнивание : Разделение по промежуткам
Продолжительность промежутка : 42 мс. (1,00 видеокадр)
Время предзагрузки промежутка : 500 мс.


picpicpicpicpic
Для увеличения картинки щелкните мышкой по превью



Этот торрент недоступен для скачивания без регистрации, однако доступен по публичной magnet-ссылке (источники с публичных трекеров). Перед использованием ссылки прочтите, пожалуйста Пользовательское соглашение, а также как можно дольше оставайтесь на раздаче! Для того, чтобы скачать сам торрент-файл (который видит больше источников), а также для того, чтобы поблагодарить релизера, вам необходимо зарегистрироваться. Если регистрироваться лень - вы можете также попробовать скачать релиз по нашим партнерским ссылкам ниже.

[underverse.su].t47988.torrent
Трекер: Зарегистрирован   [ 04.01.2015 06:35 ]  

Статус: проверено (by Ведьмочка at 04.01.2015 06:35)
Поблагодарили: пока никто не поблагодарил...
Тип торрента: публичный - доступные источники с открытых трекеров: 
Размер: 1,46 GB (занимает 1/3 DVDR, для записи нужно 1 болванка DVDR/RW)
 
 
Похожие темы
Форум Тема Автор Торрент Отв. Посл. сооб.
T Зарубежное кино [DVDRip, Low-Res HDRip, и т.д.] Счастливый ключ / Leokki (Ли Ге-бёк / Gye-byeok Lee) [2016 г., комедия, WEBRip] DVO (DeadSno & den904) 90ytr90
261 | 7

0 | 287

9

29.11.2016 20:18

Зарубежное кино [DVDRip, Low-Res HDRip, и т.д.] Счастливый брак / A Good Marriage (Питер Эскин) [2014 г., Триллер, HDRip] VO (RUS, PashaUP) + Subs (RUS, ENG) Ведьмочка
1 | 0

0 | 686

9

06.10.2014 10:48

Зарубежное кино [DVDRip, Low-Res HDRip, и т.д.] Счастливый брак / A Good Marriage (Питер Эскин) [2014 г., Триллер, WEB-DLRip] VO (RUS, PashaUP) + Original (ENG) Ведьмочка
38 | 0

0 | 732

13

06.10.2014 18:12

Зарубежное кино [DVDRip, Low-Res HDRip, и т.д.] Счастливый брак / A Good Marriage (Питер Эскин) [2014 г., Триллер, WEB-DLRip] DVO (RUS, Влад & Снежинка) Ведьмочка
110 | 6

0 | 740

16

04.12.2014 02:22

Зарубежное кино [DVDRip, Low-Res HDRip, и т.д.] Счастливый брак / A Good Marriage (Питер Эскин) [2014 г., триллер, драма, HDRip] DVO [den904 & DeadSno] Паукан
5 | 0

0 | 856

28

17.04.2015 12:56

Наше кино [DVDRip, Low-Res HDRip, и т.д.] Счастливый маршрут (Виктория Держицкая) [2013 г., мелодрама, HDTVRip] 90ytr90
5 | 1

0 | 1215

29

02.09.2013 06:33

xUSSR сериалы Счастливый билет [01-08 из 08] (Виталий Москаленко) [2012 г., мелодрама, DVB] H. Ledger
5 | 1

0 | 1039

9

22.06.2012 05:47

xUSSR сериалы Счастливый шанс [01-04 из 04] (Глеб Якубовский) [2014 г., мелодрама, SatRip] konopic
1 | 0

0 | 836

13

14.07.2014 11:34

Зарубежное кино [DVD / HDDVD / BD / Remux] Счастливый побег / Echappement libre (Жан Бекер) [1964 г., комедия, криминал, приключения, DVD5] abc-pa
5 | 1

1 | 1416

5

03.03.2013 08:33

Зарубежное кино [HDDVDRip / BDRip / WEB-DL / HDTV 1080/720р] Счастливый брак / A Good Marriage (Питер Эскин) [2014 г., Триллер, WEB-DL 720p] VO (RUS, PashaUP) + Original (ENG) + Subs (RUS, ENG) Ведьмочка
0 | 0

0 | 650

12

07.10.2014 13:15


Яндекс.Метрика powered by Sphinx


В Н И М А Н И Е
Сайт не распространяет и не хранит электронные версии произведений, а лишь бесплатно и без коммерческой выгоды (не требуя взамен платы,
SMS и т.д.) предоставляет доступ к создаваемому пользователями каталогу ссылок на торрент-файлы, которые содержат только списки хеш-сумм.
Убедительная просьба с жалобами обращаться напрямую к пользователю, разместившему торрент файл.

Вверх