Loading...
Error

Медовый месяц / Honeymoon (Ли Джаньяк) [2014 г., Ужасы, HDRip] VO (RUS, R.A.I.M.)

Статистика раздачи
Размер:  1,46 GB   |    Зарегистрирован:  1 год 10 месяцев   |    Скачан:  10 раз

Полного источника не было: 5 дней

Сидов:  0  |  0 KB/s  ]   Личеров:  0  |  0 KB/s  ]

* - сиды/пиры с внешних источников

   
 
Автор Сообщение

Ведьмочка Пол:Жен

04-Янв-2015 06:23

Медовый месяц / Honeymoon
«After the ceremony comes the ritual»


Страна: США
Год выпуска: 2014
Жанр: Ужасы
Продолжительность: 01:27:28
Режиссёр: Ли Джаньяк
В ролях: Роуз Лесли, Гарри Тредэвэй, Бен Хубер, Ханна Браун, Генри Лоуренс
Сюжет фильма:
Молодожёны Пол и Би отправляются в удалённое местечко у озера, чтобы провести там медовый месяц. Вскоре после прибытия Пол находит Би блуждающей посреди ночи в лесу. И по мере того, как она становится всё более отчуждённой, Пол начинает подозревать, что это был не просто лунатизм и в лесу произошло что-то ужасное…

Озвучивание:
  • Любительский, Одноголосный, Русский [R.A.I.M.]


Качество видео: HDRip
Формат: AVI

Видео: XviD, 720x384 (1.85:1), 23.976 fps, ~2003 Кбит/сек
Аудио: AC-3, 384 Кбит/сек, 6 Каналов, 48.0 КГц



Общее
Полное имя : \Honeymoon.2014.L1.HDRip.1.46GB.avi
Формат : AVI
Формат/Информация : Audio Video Interleave
Размер файла : 1,46 Гбайт
Продолжительность : 1 ч. 27 м.
Общий поток : 2396 Кбит/сек
Программа кодирования : VirtualDubMod 1.5.10.2 (build 2540/release)
Библиотека кодирования : VirtualDubMod build 2540/release

Видео
Идентификатор : 0
Формат : MPEG-4 Visual
Профиль формата : Advanced Simple@L5
Параметр BVOP формата : 2
Параметр QPel формата : Нет
Параметр GMC формата : Без точки перехода
Параметр матрицы формата : Default (MPEG)
Идентификатор кодека : XVID
Идентификатор кодека/Подсказка : XviD
Продолжительность : 1 ч. 27 м.
Битрейт : 2003 Кбит/сек
Ширина : 720 пикселей
Высота : 384 пикселя
Соотношение сторон : 1,85:1
Частота кадров : 23,976 кадра/сек
Цветовое пространство : YUV
Субдискретизация насыщенности : 4:2:0
Битовая глубина : 8 бит
Тип развёртки : Прогрессивная
Метод сжатия : С потерями
Бит/(Пиксели*Кадры) : 0.302
Размер потока : 1,22 Гбайт (84%)
Библиотека кодирования : XviD 1.2.1 (UTC 2008-12-04)

Аудио
Идентификатор : 1
Формат : AC-3
Формат/Информация : Audio Coding 3
Расширение режима : CM (complete main)
Параметр Endianness формата : Big
Идентификатор кодека : 2000
Продолжительность : 1 ч. 27 м.
Вид битрейта : Постоянный
Битрейт : 384 Кбит/сек
Каналы : 6 каналов
Расположение каналов : Front: L C R, Side: L R, LFE
Частота : 48,0 КГц
Битовая глубина : 16 бит
Метод сжатия : С потерями
Размер потока : 240 Мбайт (16%)
Выравнивание : Разделение по промежуткам
Продолжительность промежутка : 42 мс. (1,00 видеокадр)
Время предзагрузки промежутка : 500 мс.


picpicpicpicpic
Для увеличения картинки щелкните мышкой по превью



Этот торрент недоступен для скачивания без регистрации, однако доступен по публичной magnet-ссылке (источники с публичных трекеров). Перед использованием ссылки прочтите, пожалуйста Пользовательское соглашение, а также как можно дольше оставайтесь на раздаче! Для того, чтобы скачать сам торрент-файл (который видит больше источников), а также для того, чтобы поблагодарить релизера, вам необходимо зарегистрироваться. Если регистрироваться лень - вы можете также попробовать скачать релиз по нашим партнерским ссылкам ниже.

[underverse.su].t47987.torrent
Трекер: Зарегистрирован   [ 04.01.2015 06:23 ]  

Статус: проверено (by Ведьмочка at 04.01.2015 06:23)
Поблагодарили: 1 человек
Тип торрента: публичный - доступные источники с открытых трекеров: 
Размер: 1,46 GB (занимает 0,33 DVDR, для записи нужно 1 болванка DVDR/RW)
 
 
Похожие темы
Форум Тема Автор Торрент Отв. Посл. сооб.
Зарубежное кино [DVDRip, Low-Res HDRip, и т.д.] Медовый месяц / Honeymoon (Ли Джаньяк) [2014 г., ужасы, HDTVRip] VO [R.A.I.M] Паукан
1 | 0

0 | 554

10

15.09.2014 10:28

Зарубежное кино [HDDVDRip / BDRip / WEB-DL / HDTV 1080/720р] Медовый месяц / Honeymoon (Ли Джаньяк) [2014 г., ужасы, HDTV 720p] VO + Original Паукан
40 | 0

0 | 548

7

15.09.2014 07:15


Яндекс.Метрика powered by Sphinx


В Н И М А Н И Е
Сайт не распространяет и не хранит электронные версии произведений, а лишь бесплатно и без коммерческой выгоды (не требуя взамен платы,
SMS и т.д.) предоставляет доступ к создаваемому пользователями каталогу ссылок на торрент-файлы, которые содержат только списки хеш-сумм.
Убедительная просьба с жалобами обращаться напрямую к пользователю, разместившему торрент файл.

Вверх