Loading...
Error

Спешите любить (Максим Демченко) [2014 г., Мелодрама, WEB-DLRip]

Статистика раздачи
Размер:  1,37 GB   |    Зарегистрирован:  1 год 11 месяцев   |    Скачан:  19 раз

Полного источника не было: 3 часа

Сидов:  0  |  0 KB/s  ]   Личеров:  0  |  0 KB/s  ]

* - сиды/пиры с внешних источников

   
 
Автор Сообщение

Ведьмочка Пол:Жен

02-Янв-2015 09:29

Спешите любить


Страна: Россия
Год выпуска: 2014
Жанр: Мелодрама
Продолжительность: 01:27:59
Режиссёр: Максим Демченко
В ролях: Павел Трубинер, Светлана Иванова, Юлия Мельникова, Кирилл Плетнёв, Владимир Стержаков, Юлия Стожарова
Сюжет фильма:
Летчик Антон отстранен от полетов: из-за развода с женой у него началась неврастения. Жена-стюардесса не хочет оставлять с ним дочку Киру, даже когда сама в рейсе, поэтому Антон забирает ребенка тайком и переезжает в коммуналку. Соседнюю комнату снимает Ася, привыкшая к роскоши, но бросившая богатого мужа, который ей изменил. Атмосфера в квартире напряженная: ни Антон, ни Ася не привыкли к столь тесному соседству. Поначалу они даже воюют и делают друг другу мелкие пакости, но путь от ненависти до любви будет недолгим. И вот уже Ася заботится о маленькой Кире, как о родной, а влюбленный Антон забывает про все заботы. Жили бы они счастливо, если бы раскаявшийся супруг не появился вновь на горизонте Аси, и если бы жена Антона не отобрала у него дочь. За любовь нужно бороться, и героям предстоят тяжелые бои.

Качество видео: WEB-DLRip
Формат: AVI

Видео: XviD, 720x400 (16:9), 25.000 fps, ~1991 Кбит/сек
Аудио: AC-3, 224 Кбит/сек, 2 Канала, 48.0 КГц



Общее
Полное имя : \Speshite.lybitb.O.2014.WEB-DLRip.avi
Формат : AVI
Формат/Информация : Audio Video Interleave
Размер файла : 1,37 Гбайт
Продолжительность : 1 ч. 27 м.
Общий поток : 2225 Кбит/сек
Программа кодирования : VirtualDubMod 1.5.10.2 (build 2540/release)
Библиотека кодирования : VirtualDubMod build 2540/release

Видео
Идентификатор : 0
Формат : MPEG-4 Visual
Профиль формата : Advanced Simple@L5
Параметр BVOP формата : 2
Параметр QPel формата : Нет
Параметр GMC формата : Без точки перехода
Параметр матрицы формата : Default (MPEG)
Идентификатор кодека : XVID
Идентификатор кодека/Подсказка : XviD
Продолжительность : 1 ч. 27 м.
Битрейт : 1991 Кбит/сек
Ширина : 720 пикселей
Высота : 400 пикселей
Соотношение сторон : 16:9
Частота кадров : 25,000 кадров/сек
Цветовое пространство : YUV
Субдискретизация насыщенности : 4:2:0
Битовая глубина : 8 бит
Тип развёртки : Прогрессивная
Метод сжатия : С потерями
Бит/(Пиксели*Кадры) : 0.276
Размер потока : 1,22 Гбайт (89%)
Библиотека кодирования : XviD 1.2.1 (UTC 2008-12-04)

Аудио
Идентификатор : 1
Формат : AC-3
Формат/Информация : Audio Coding 3
Расширение режима : CM (complete main)
Параметр Endianness формата : Big
Идентификатор кодека : 2000
Продолжительность : 1 ч. 27 м.
Вид битрейта : Постоянный
Битрейт : 224 Кбит/сек
Каналы : 2 канала
Расположение каналов : Front: L R
Частота : 48,0 КГц
Битовая глубина : 16 бит
Метод сжатия : С потерями
Размер потока : 141 Мбайт (10%)
Выравнивание : Разделение по промежуткам
Продолжительность промежутка : 40 мс. (1,00 видеокадр)
Время предзагрузки промежутка : 500 мс.


picpicpicpicpic
Для увеличения картинки щелкните мышкой по превью



Этот торрент недоступен для скачивания без регистрации, однако доступен по публичной magnet-ссылке (источники с публичных трекеров). Перед использованием ссылки прочтите, пожалуйста Пользовательское соглашение, а также как можно дольше оставайтесь на раздаче! Для того, чтобы скачать сам торрент-файл (который видит больше источников), а также для того, чтобы поблагодарить релизера, вам необходимо зарегистрироваться. Если регистрироваться лень - вы можете также попробовать скачать релиз по нашим партнерским ссылкам ниже.

[underverse.su].t47953.torrent
Трекер: Зарегистрирован   [ 02.01.2015 09:29 ]  

Статус: проверено (by Ведьмочка at 02.01.2015 09:33)
Поблагодарили: пока никто не поблагодарил...
Тип торрента: публичный - доступные источники с открытых трекеров: 
Размер: 1,37 GB (занимает 0,31 DVDR, для записи нужно 1 болванка DVDR/RW)
 
 
Похожие темы
Форум Тема Автор Торрент Отв. Посл. сооб.
Наше кино [DVDRip, Low-Res HDRip, и т.д.] Спешите любить (Максим Демченко) [2014 г., Мелодрама, SATRip] Ведьмочка
2 | 0

0 | 491

7

01.01.2015 23:32


Яндекс.Метрика powered by Sphinx


В Н И М А Н И Е
Сайт не распространяет и не хранит электронные версии произведений, а лишь бесплатно и без коммерческой выгоды (не требуя взамен платы,
SMS и т.д.) предоставляет доступ к создаваемому пользователями каталогу ссылок на торрент-файлы, которые содержат только списки хеш-сумм.
Убедительная просьба с жалобами обращаться напрямую к пользователю, разместившему торрент файл.

Вверх