Loading...
Error

Мишень / The Target / Pyojeok / Point Blank (Юн Хон Сын) [2014 г., Боевик, Триллер, BDRip-AVC] DVO (RUS, Влад & Снежинка) + Original (KOR) + Subs (RUS, ENG)

Статистика раздачи
Размер:  1,99 GB   |    Зарегистрирован:  1 год 11 месяцев   |    Скачан:  2 раза

Полного источника не было: 1 год 10 месяцев

Сидов:  0  |  0 KB/s  ]   Личеров:  0  |  0 KB/s  ]

* - сиды/пиры с внешних источников

   
 
Автор Сообщение

Ведьмочка Пол:Жен

01-Янв-2015 22:17

Мишень / The Target / Pyojeok / Point Blank


Страна: Южная Корея
Год выпуска: 2014
Жанр: Боевик, Триллер
Продолжительность: 01:38:27
Режиссёр: Юн Хон Сын
В ролях: Рю Сын Рён, Ю Чжун Сан, Ли Джин Ук, Ким Сон Рён, Чо Ё Чжон, Чо Ын Джи, Рёхеи Отани, Чин Гу
Сюжет фильма:
Бывшего наемного убийцу сажают в тюрьму за убийство известного корпоративного лидера. Но ему решает помочь простой врач, который отчаянно пытается спасти свою похищенную беременную жену…

Озвучивание:
  • Любительский, Двухголосный, Русский [Влад & Снежинка]
  • Оригинал, Корейский

Качество видео: BDRip-AVC
Формат: MKV

Видео: AVC, 1024х428 (2.40:1), 23.976 fps, ~2250 Кбит/сек
Аудио #1: AC-3, 192 Кбит/сек, 2 Канала, 48.0 КГц
Аудио #2: AC-3, 448 Кбит/сек, 6 Каналов, 48.0 КГц

Субтитры #1: UTF-8 [Русские, Полные, Crazy Cats]
Субтитры #2: UTF-8 [Английские, Полные]

Rip by:



Общее
Уникальный идентификатор : 220527380608706225360792552537119627526 (0xA5E807517CF04AE5955C58EB6A199906)
Полное имя : \Mishen.2014.x264.BDRip.(AVC)-MediaClub.mkv
Формат : Matroska
Версия формата : Version 4 / Version 2
Размер файла : 1,99 Гбайт
Продолжительность : 1 ч. 38 м.
Общий поток : 2891 Кбит/сек
Название фильма : = MediaClub = rip by Painter
Дата кодирования : UTC 2014-11-17 15:23:21
Программа кодирования : mkvmerge v7.2.0 ('On Every Street') 32bit built on Sep 13 2014 15:42:11
Библиотека кодирования : libebml v1.3.0 + libmatroska v1.4.1
DURATION : 01:33:32.263000000
NUMBER_OF_FRAMES : 996
NUMBER_OF_BYTES : 23478
_STATISTICS_WRITING_APP : mkvmerge v7.2.0 ('On Every Street') 32bit built on Sep 13 2014 15:42:11
_STATISTICS_WRITING_DATE_UTC : 2014-11-17 15:23:21
_STATISTICS_TAGS : BPS DURATION NUMBER_OF_FRAMES NUMBER_OF_BYTES

Видео
Идентификатор : 1
Формат : AVC
Формат/Информация : Advanced Video Codec
Профиль формата : High@L4.1
Параметр CABAC формата : Да
Параметр ReFrames формата : 10 кадров
Идентификатор кодека : V_MPEG4/ISO/AVC
Продолжительность : 1 ч. 38 м.
Битрейт : 2250 Кбит/сек
Ширина : 1024 пикселя
Высота : 428 пикселей
Соотношение сторон : 2,40:1
Режим частоты кадров : Постоянный
Частота кадров : 23,976 кадра/сек
Цветовое пространство : YUV
Субдискретизация насыщенности : 4:2:0
Битовая глубина : 8 бит
Тип развёртки : Прогрессивная
Бит/(Пиксели*Кадры) : 0.214
Размер потока : 1,51 Гбайт (76%)
Библиотека кодирования : x264 core 142 r2409+42 04be48a tMod [8-bit@4:2:0 X86]
Настройки программы : cabac=1 / ref=10 / deblock=1:-3:-3 / analyse=0x3:0x133 / me=umh / subme=11 / psy=1 / fade_compensate=0.00 / psy_rd=1.00:0.20 / mixed_ref=1 / me_range=48 / chroma_me=1 / trellis=2 / 8x8dct=1 / cqm=0 / deadzone=21,11 / fast_pskip=0 / chroma_qp_offset=-3 / threads=6 / lookahead_threads=1 / sliced_threads=0 / nr=0 / decimate=0 / interlaced=0 / bluray_compat=0 / constrained_intra=0 / fgo=0 / bframes=10 / b_pyramid=2 / b_adapt=2 / b_bias=0 / direct=3 / weightb=1 / open_gop=0 / weightp=2 / keyint=240 / keyint_min=23 / scenecut=40 / intra_refresh=0 / rc=2pass / mbtree=0 / bitrate=2250 / ratetol=1.0 / qcomp=0.60 / qpmin=0:0:0 / qpmax=69:69:69 / qpstep=4 / cplxblur=20.0 / qblur=0.5 / ip_ratio=1.40 / pb_ratio=1.30 / aq=2:1.00 / aq-sensitivity=10.00 / aq-factor=1.00:1.00:1.00 / aq2=0 / aq3=0
Язык : Korean
Default : Да
Forced : Нет
DURATION : 01:38:26.568000000
NUMBER_OF_FRAMES : 141616
NUMBER_OF_BYTES : 1660325007
_STATISTICS_WRITING_APP : mkvmerge v7.2.0 ('On Every Street') 32bit built on Sep 13 2014 15:42:11
_STATISTICS_WRITING_DATE_UTC : 2014-11-17 15:23:21
_STATISTICS_TAGS : BPS DURATION NUMBER_OF_FRAMES NUMBER_OF_BYTES

Аудио #1
Идентификатор : 2
Формат : AC-3
Формат/Информация : Audio Coding 3
Расширение режима : CM (complete main)
Параметр Endianness формата : Big
Идентификатор кодека : A_AC3
Продолжительность : 1 ч. 38 м.
Вид битрейта : Постоянный
Битрейт : 192 Кбит/сек
Каналы : 2 канала
Расположение каналов : Front: L R
Частота : 48,0 КГц
Битовая глубина : 16 бит
Метод сжатия : С потерями
Размер потока : 135 Мбайт (7%)
Язык : Russian
Default : Да
Forced : Да

Аудио #2
Идентификатор : 3
Формат : AC-3
Формат/Информация : Audio Coding 3
Расширение режима : CM (complete main)
Параметр Endianness формата : Big
Идентификатор кодека : A_AC3
Продолжительность : 1 ч. 38 м.
Вид битрейта : Постоянный
Битрейт : 448 Кбит/сек
Каналы : 6 каналов
Расположение каналов : Front: L C R, Side: L R, LFE
Частота : 48,0 КГц
Битовая глубина : 16 бит
Метод сжатия : С потерями
Размер потока : 315 Мбайт (15%)
Язык : Korean
Default : Нет
Forced : Нет

Текст #1
Идентификатор : 4
Формат : UTF-8
Идентификатор кодека : S_TEXT/UTF8
Идентификатор кодека/Информация : UTF-8 Plain Text
Заголовок : Crazy Cats
Язык : Russian
Default : Нет
Forced : Нет

Текст #2
Идентификатор : 5
Формат : UTF-8
Идентификатор кодека : S_TEXT/UTF8
Идентификатор кодека/Информация : UTF-8 Plain Text
Язык : English
Default : Нет
Forced : Нет


picpicpicpicpic
Для увеличения картинки щелкните мышкой по превью



Этот торрент недоступен для скачивания без регистрации, однако доступен по публичной magnet-ссылке (источники с публичных трекеров). Перед использованием ссылки прочтите, пожалуйста Пользовательское соглашение, а также как можно дольше оставайтесь на раздаче! Для того, чтобы скачать сам торрент-файл (который видит больше источников), а также для того, чтобы поблагодарить релизера, вам необходимо зарегистрироваться. Если регистрироваться лень - вы можете также попробовать скачать релиз по нашим партнерским ссылкам ниже.

[underverse.su].t47932.torrent
Трекер: Зарегистрирован   [ 01.01.2015 22:17 ]  

Статус: проверено (by Ведьмочка at 01.01.2015 22:19)
Поблагодарили: пока никто не поблагодарил...
Тип торрента: публичный - доступные источники с открытых трекеров: 
Размер: 1,99 GB (занимает 0,45 DVDR, для записи нужно 1 болванка DVDR/RW)
 
 
Похожие темы
Форум Тема Автор Торрент Отв. Посл. сооб.
Зарубежное кино [DVDRip, Low-Res HDRip, и т.д.] Мишень / The Target / Pyojeok / Point Blank (Юн Хон Сын) [2014 г., Боевик, Триллер, HDTVRip] DVO (RUS, Влад & Снежинка) + Original (KOR) Ведьмочка
0 | 0

0 | 407

13

27.09.2014 22:18

Зарубежное кино [DVDRip, Low-Res HDRip, и т.д.] Мишень / The Target / Pyojeok / Point Blank (Юн Хон Сын) [2014 г., Боевик, Триллер, HDRip] DVO (RUS, Влад & Снежинка) Ведьмочка
0 | 1

0 | 376

9

01.01.2015 22:07

Зарубежное кино [HDDVDRip / BDRip / WEB-DL / HDTV 1080/720р] Мишень / The Target / Pyojeok / Point Blank (Юн Хон Сын) [2014 г., Боевик, Триллер, HDTV 720p] DVO (RUS, Влад & Снежинка) + Original (KOR) + Subs (ENG) Ведьмочка
15 | 0

0 | 354

15

27.09.2014 08:48

Зарубежное кино [HDDVDRip / BDRip / WEB-DL / HDTV 1080/720р] Мишень / The Target / Pyojeok / Point Blank (Юн Хон Сын) [2014 г., Боевик, Триллер, BDRip 720p] DVO (RUS, Влад & Снежинка) + Original (KOR) + Subs (RUS, ENG) Ведьмочка
7 | 1

0 | 355

7

01.01.2015 22:25

Зарубежное кино [HDDVDRip / BDRip / WEB-DL / HDTV 1080/720р] Мишень / The Target / Pyojeok / Point Blank (Юн Хон Сын) [2014 г., Боевик, Триллер, BDRip 1080p] DVO (RUS, Влад & Снежинка) + Original (KOR) + Subs (RUS, ENG) Ведьмочка
2 | 0

0 | 426

6

01.01.2015 22:30


Яндекс.Метрика powered by Sphinx


В Н И М А Н И Е
Сайт не распространяет и не хранит электронные версии произведений, а лишь бесплатно и без коммерческой выгоды (не требуя взамен платы,
SMS и т.д.) предоставляет доступ к создаваемому пользователями каталогу ссылок на торрент-файлы, которые содержат только списки хеш-сумм.
Убедительная просьба с жалобами обращаться напрямую к пользователю, разместившему торрент файл.

Вверх