Loading...
Error

Мишень / The Target / Pyojeok / Point Blank (Юн Хон Сын) [2014 г., Боевик, Триллер, HDRip] DVO (RUS, Влад & Снежинка)

Статистика раздачи
Размер:  1,46 GB   |    Зарегистрирован:  1 год 11 месяцев   |    Скачан:  9 раз

Полного источника не было: 11 месяцев

Сидов:  0  |  0 KB/s  ]   Личеров:  0  |  0 KB/s  ]

* - сиды/пиры с внешних источников

   
 
Автор Сообщение

Ведьмочка Пол:Жен

01-Янв-2015 22:07

Мишень / The Target / Pyojeok / Point Blank


Страна: Южная Корея
Год выпуска: 2014
Жанр: Боевик, Триллер
Продолжительность: 01:38:27
Режиссёр: Юн Хон Сын
В ролях: Рю Сын Рён, Ю Чжун Сан, Ли Джин Ук, Ким Сон Рён, Чо Ё Чжон, Чо Ын Джи, Рёхеи Отани, Чин Гу
Сюжет фильма:
Бывшего наемного убийцу сажают в тюрьму за убийство известного корпоративного лидера. Но ему решает помочь простой врач, который отчаянно пытается спасти свою похищенную беременную жену…

Озвучивание:
  • Любительский, Двухголосный, Русский [Влад & Снежинка]

Качество видео: HDRip
Формат: AVI

Видео: XviD, 720х304 (2.35:1), 23.976 fps, ~1926 Кбит/сек
Аудио: AC-3, 192 Кбит/сек, 2 Канала, 48.0 КГц

Rip by:



Общее
Полное имя : \The Target.2014.HDRip.XviD.1400MB. rip by [Assassin's Creed].avi
Формат : AVI
Формат/Информация : Audio Video Interleave
Размер файла : 1,46 Гбайт
Продолжительность : 1 ч. 38 м.
Общий поток : 2127 Кбит/сек
Программа кодирования : VirtualDubMod 1.5.10.3 | www.virtualdub-fr.org || (build 2550/release)
Библиотека кодирования : VirtualDubMod build 2550/release

Видео
Идентификатор : 0
Формат : MPEG-4 Visual
Профиль формата : Advanced Simple@L5
Параметр BVOP формата : 1
Параметр QPel формата : Нет
Параметр GMC формата : Без точки перехода
Параметр матрицы формата : Default (MPEG)
Идентификатор кодека : XVID
Идентификатор кодека/Подсказка : XviD
Продолжительность : 1 ч. 38 м.
Битрейт : 1926 Кбит/сек
Ширина : 720 пикселей
Высота : 304 пикселя
Соотношение сторон : 2,35:1
Частота кадров : 23,976 кадра/сек
Цветовое пространство : YUV
Субдискретизация насыщенности : 4:2:0
Битовая глубина : 8 бит
Тип развёртки : Прогрессивная
Метод сжатия : С потерями
Бит/(Пиксели*Кадры) : 0.367
Размер потока : 1,32 Гбайт (91%)
Библиотека кодирования : XviD 1.2.1 (UTC 2008-12-04)

Аудио
Идентификатор : 1
Формат : AC-3
Формат/Информация : Audio Coding 3
Расширение режима : CM (complete main)
Параметр Endianness формата : Big
Идентификатор кодека : 2000
Продолжительность : 1 ч. 38 м.
Вид битрейта : Постоянный
Битрейт : 192 Кбит/сек
Каналы : 2 канала
Расположение каналов : Front: L R
Частота : 48,0 КГц
Битовая глубина : 16 бит
Метод сжатия : С потерями
Размер потока : 135 Мбайт (9%)
Выравнивание : Разделение по промежуткам
Продолжительность промежутка : 42 мс. (1,00 видеокадр)
Время предзагрузки промежутка : 500 мс.


picpicpicpicpic
Для увеличения картинки щелкните мышкой по превью



Этот торрент недоступен для скачивания без регистрации, однако доступен по публичной magnet-ссылке (источники с публичных трекеров). Перед использованием ссылки прочтите, пожалуйста Пользовательское соглашение, а также как можно дольше оставайтесь на раздаче! Для того, чтобы скачать сам торрент-файл (который видит больше источников), а также для того, чтобы поблагодарить релизера, вам необходимо зарегистрироваться. Если регистрироваться лень - вы можете также попробовать скачать релиз по нашим партнерским ссылкам ниже.

[underverse.su].t47930.torrent
Трекер: Зарегистрирован   [ 01.01.2015 22:07 ]  

Статус: проверено (by Ведьмочка at 01.01.2015 22:07)
Поблагодарили: пока никто не поблагодарил...
Тип торрента: публичный - доступные источники с открытых трекеров: 
Размер: 1,46 GB (занимает 0,33 DVDR, для записи нужно 1 болванка DVDR/RW)
 
 
Похожие темы
Форум Тема Автор Торрент Отв. Посл. сооб.
Зарубежное кино [DVDRip, Low-Res HDRip, и т.д.] Мишень / The Target / Pyojeok / Point Blank (Юн Хон Сын) [2014 г., Боевик, Триллер, HDTVRip] DVO (RUS, Влад & Снежинка) + Original (KOR) Ведьмочка
0 | 0

0 | 407

13

27.09.2014 22:18

Зарубежное кино [DVDRip, Low-Res HDRip, и т.д.] Мишень / The Target / Pyojeok / Point Blank (Юн Хон Сын) [2014 г., Боевик, Триллер, BDRip-AVC] DVO (RUS, Влад & Снежинка) + Original (KOR) + Subs (RUS, ENG) Ведьмочка
1 | 0

0 | 372

2

01.01.2015 22:17

Зарубежное кино [HDDVDRip / BDRip / WEB-DL / HDTV 1080/720р] Мишень / The Target / Pyojeok / Point Blank (Юн Хон Сын) [2014 г., Боевик, Триллер, HDTV 720p] DVO (RUS, Влад & Снежинка) + Original (KOR) + Subs (ENG) Ведьмочка
15 | 0

0 | 354

15

27.09.2014 08:48

Зарубежное кино [HDDVDRip / BDRip / WEB-DL / HDTV 1080/720р] Мишень / The Target / Pyojeok / Point Blank (Юн Хон Сын) [2014 г., Боевик, Триллер, BDRip 720p] DVO (RUS, Влад & Снежинка) + Original (KOR) + Subs (RUS, ENG) Ведьмочка
7 | 1

0 | 355

7

01.01.2015 22:25

Зарубежное кино [HDDVDRip / BDRip / WEB-DL / HDTV 1080/720р] Мишень / The Target / Pyojeok / Point Blank (Юн Хон Сын) [2014 г., Боевик, Триллер, BDRip 1080p] DVO (RUS, Влад & Снежинка) + Original (KOR) + Subs (RUS, ENG) Ведьмочка
2 | 0

0 | 426

6

01.01.2015 22:30


Яндекс.Метрика powered by Sphinx


В Н И М А Н И Е
Сайт не распространяет и не хранит электронные версии произведений, а лишь бесплатно и без коммерческой выгоды (не требуя взамен платы,
SMS и т.д.) предоставляет доступ к создаваемому пользователями каталогу ссылок на торрент-файлы, которые содержат только списки хеш-сумм.
Убедительная просьба с жалобами обращаться напрямую к пользователю, разместившему торрент файл.

Вверх