Loading...
Error

Золотая невеста (Роман Барабаш) [2014 г., Комедия, SATRip]

Статистика раздачи
Размер:  1,24 GB   |    Зарегистрирован:  1 год 11 месяцев   |    Скачан:  28 раз

Полного источника не было: 3 месяца 20 дней

Сидов:  0  |  0 KB/s  ]   Личеров:  0  |  0 KB/s  ]

* - сиды/пиры с внешних источников

   
 
Автор Сообщение

Ведьмочка Пол:Жен

01-Янв-2015 11:32

Золотая невеста


Страна: Россия
Год выпуска: 2014
Жанр: Комедия
Продолжительность: 01:28:30
Режиссёр: Роман Барабаш
В ролях: Юлия Гришина, Глафира Тарханова, Александр Ратников, Олег Масленников-Войтов, Виталий Альшанский, Анастасия Пронина, Вадим Александров, Ирина Домнинская, Алёна Проданова
Сюжет фильма:
Деревенские старик со старухой берутся выдать замуж городскую племянницу, засидевшуюся в девках, когда та приезжает погостить на новогодние каникулы. Чтобы привлечь интерес к её неказистой персоне, оборотистая бабка без ведома племяшки распускает слух, будто Надя — вдова-миллионерша, и скоро получит наследство от умершего мужа-бизнесмена.

У каждого из объявившихся женихов свои планы на Надино «наследство». Журналист Долгобродов хочет сделать сенсационный материал о вдове знаменитого миллионера, которая почему-то прячется в деревне. Он пытается на волне этой сенсации получить работу в Москве. Художник Тимофей, выбрав в спутницы жизни богатую вдову, хочет добиться мировой славы. Стареющему ловеласу Кулькову всего-то и нужно от Нади, что денег на починку избы. При этом каждый из кандидатов считает Надю скучной серой мышкой. И только после того, как она влюбляется по-настоящему и преображается, женихи понимают, что проворонили настоящее сокровище. Корыстные помыслы сменяются искренней симпатией, и когда выясняется, что никакого наследства нет и в помине, многие по-прежнему не прочь предложить ей руку и сердце.

Качество видео: SATRip
Формат: AVI

Видео: XviD, 720x400 (16:9), 25.000 fps, ~1800 Кбит/сек
Аудио: AC-3, 192 Кбит/сек, 2 Канала, 48.0 КГц



Общее
Полное имя : \Zolotaya.Nevesta.SATRip..avi
Формат : AVI
Формат/Информация : Audio Video Interleave
Размер файла : 1,24 Гбайт
Продолжительность : 1 ч. 28 м.
Общий поток : 2001 Кбит/сек
Программа кодирования : VirtualDubMod 1.5.10.3 | www.virtualdub-fr.org || (build 2550/release)
Библиотека кодирования : VirtualDub build 35491/release

Видео
Идентификатор : 0
Формат : MPEG-4 Visual
Профиль формата : Advanced Simple@L5
Параметр BVOP формата : 2
Параметр QPel формата : Нет
Параметр GMC формата : Без точки перехода
Параметр матрицы формата : Default (H.263)
Идентификатор кодека : XVID
Идентификатор кодека/Подсказка : XviD
Продолжительность : 1 ч. 28 м.
Битрейт : 1800 Кбит/сек
Ширина : 720 пикселей
Высота : 400 пикселей
Соотношение сторон : 16:9
Частота кадров : 25,000 кадров/сек
Цветовое пространство : YUV
Субдискретизация насыщенности : 4:2:0
Битовая глубина : 8 бит
Тип развёртки : Прогрессивная
Метод сжатия : С потерями
Бит/(Пиксели*Кадры) : 0.250
Размер потока : 1,11 Гбайт (90%)
Библиотека кодирования : XviD 1.2.1 (UTC 2008-12-04)

Аудио
Идентификатор : 1
Формат : AC-3
Формат/Информация : Audio Coding 3
Расширение режима : CM (complete main)
Параметр Endianness формата : Big
Идентификатор кодека : 2000
Продолжительность : 1 ч. 28 м.
Вид битрейта : Постоянный
Битрейт : 192 Кбит/сек
Каналы : 2 канала
Расположение каналов : Front: L R
Частота : 48,0 КГц
Битовая глубина : 16 бит
Метод сжатия : С потерями
Размер потока : 122 Мбайт (10%)
Выравнивание : Разделение по промежуткам
Продолжительность промежутка : 40 мс. (1,00 видеокадр)
Время предзагрузки промежутка : 500 мс.


picpicpicpicpic
Для увеличения картинки щелкните мышкой по превью



Этот торрент недоступен для скачивания без регистрации, однако доступен по публичной magnet-ссылке (источники с публичных трекеров). Перед использованием ссылки прочтите, пожалуйста Пользовательское соглашение, а также как можно дольше оставайтесь на раздаче! Для того, чтобы скачать сам торрент-файл (который видит больше источников), а также для того, чтобы поблагодарить релизера, вам необходимо зарегистрироваться. Если регистрироваться лень - вы можете также попробовать скачать релиз по нашим партнерским ссылкам ниже.

[underverse.su].t47899.torrent
Трекер: Зарегистрирован   [ 01.01.2015 11:32 ]  

Статус: проверено (by Ведьмочка at 01.01.2015 11:33)
Поблагодарили: пока никто не поблагодарил...
Тип торрента: публичный - доступные источники с открытых трекеров: 
Размер: 1,24 GB (занимает 0,28 DVDR, для записи нужно 1 болванка DVDR/RW)
 
 
Похожие темы
Форум Тема Автор Торрент Отв. Посл. сооб.
Наше кино [HDDVDRip / BDRip / WEB-DL / HDTV 1080/720р] Золотая невеста (Роман Барабаш) [2014 г., Комедия, HDTVRip 720p] Ведьмочка
68 | 2

0 | 632

22

01.01.2015 23:41


Яндекс.Метрика powered by Sphinx


В Н И М А Н И Е
Сайт не распространяет и не хранит электронные версии произведений, а лишь бесплатно и без коммерческой выгоды (не требуя взамен платы,
SMS и т.д.) предоставляет доступ к создаваемому пользователями каталогу ссылок на торрент-файлы, которые содержат только списки хеш-сумм.
Убедительная просьба с жалобами обращаться напрямую к пользователю, разместившему торрент файл.

Вверх