Loading...
Error

Викинги / Northmen - A Viking Saga (Клаудио Фах) [2014 г., Боевик, Приключения, WEB-DLRip] Dub (RUS, iTunes Russia)

Статистика раздачи
Размер:  1,46 GB   |    Зарегистрирован:  1 год 11 месяцев   |    Скачан:  40 раз

Полного источника не было: 3 дня

Сидов:  0  |  0 KB/s  ]   Личеров:  0  |  0 KB/s  ]

* - сиды/пиры с внешних источников

   
 
Автор Сообщение

Ведьмочка Пол:Жен

01-Янв-2015 06:54

Викинги / Northmen - A Viking Saga
«A band of Vikings cross enemy lines. And a panicked race begins. The losers will pay with their lives»


Страна: Швейцария , Германия , ЮАР
Год выпуска: 2014
Жанр: Боевик, Приключения
Продолжительность: 01:34:00
Режиссёр: Клаудио Фах
В ролях: Джеймс Нортон, Райан Квантен, Чарли Мерфи, Эд Скрейн, Том Хоппер, Лео Грегори, Кен Дюкен, Анатоль Таубман, Николас Расенти, Йохан Хегг
Сюжет фильма:
Группа викингов оказалась выброшенной на побережье в тылу врага после того, как в ужасном шторме их судно пошло ко дну. Их единственный шанс выжить — это найти путь к поселению викингов. Но для этого им придется пересечь незнакомые и враждебные земли, на которых они никогда не были.

Озвучивание:
  • Дублированный, Русский [iTunes Russia]

Качество видео: WEB-DLRip
Формат: AVI

Видео: XviD, 720x304 (2.35:1), 25.000 fps, ~1831 Кбит/сек
Аудио: AC-3, 384 Кбит/сек, 6 Каналов, 48.0 КГц



Общее
Полное имя : \Vikingi.2014.D.Web-DLRip.1.46Gb.avi
Формат : AVI
Формат/Информация : Audio Video Interleave
Размер файла : 1,46 Гбайт
Продолжительность : 1 ч. 34 м.
Общий поток : 2225 Кбит/сек
Программа кодирования : VirtualDubMod 1.5.10.2 (build 2540/release)
Библиотека кодирования : VirtualDubMod build 2540/release

Видео
Идентификатор : 0
Формат : MPEG-4 Visual
Профиль формата : Advanced Simple@L5
Параметр BVOP формата : 2
Параметр QPel формата : Нет
Параметр GMC формата : Без точки перехода
Параметр матрицы формата : Default (MPEG)
Идентификатор кодека : XVID
Идентификатор кодека/Подсказка : XviD
Продолжительность : 1 ч. 34 м.
Битрейт : 1831 Кбит/сек
Ширина : 720 пикселей
Высота : 304 пикселя
Соотношение сторон : 2,35:1
Частота кадров : 25,000 кадров/сек
Цветовое пространство : YUV
Субдискретизация насыщенности : 4:2:0
Битовая глубина : 8 бит
Тип развёртки : Прогрессивная
Метод сжатия : С потерями
Бит/(Пиксели*Кадры) : 0.335
Размер потока : 1,20 Гбайт (82%)
Библиотека кодирования : XviD 1.2.1 (UTC 2008-12-04)

Аудио
Идентификатор : 1
Формат : AC-3
Формат/Информация : Audio Coding 3
Расширение режима : CM (complete main)
Параметр Endianness формата : Big
Идентификатор кодека : 2000
Продолжительность : 1 ч. 34 м.
Вид битрейта : Постоянный
Битрейт : 384 Кбит/сек
Каналы : 6 каналов
Расположение каналов : Front: L C R, Side: L R, LFE
Частота : 48,0 КГц
Битовая глубина : 16 бит
Метод сжатия : С потерями
Размер потока : 258 Мбайт (17%)
Выравнивание : Разделение по промежуткам
Продолжительность промежутка : 40 мс. (1,00 видеокадр)
Время предзагрузки промежутка : 500 мс.

picpicpicpicpic
Для увеличения картинки щелкните мышкой по превью



Этот торрент недоступен для скачивания без регистрации, однако доступен по публичной magnet-ссылке (источники с публичных трекеров). Перед использованием ссылки прочтите, пожалуйста Пользовательское соглашение, а также как можно дольше оставайтесь на раздаче! Для того, чтобы скачать сам торрент-файл (который видит больше источников), а также для того, чтобы поблагодарить релизера, вам необходимо зарегистрироваться. Если регистрироваться лень - вы можете также попробовать скачать релиз по нашим партнерским ссылкам ниже.

[underverse.su].t47881.torrent
Трекер: Зарегистрирован   [ 01.01.2015 06:54 ]  

Статус: T временная (by Ведьмочка at 01.01.2015 06:54)
Поблагодарили: 2 человека
Тип торрента: публичный - доступные источники с открытых трекеров: 
Размер: 1,46 GB (занимает 0,33 DVDR, для записи нужно 1 болванка DVDR/RW)
 
 
Похожие темы
Форум Тема Автор Торрент Отв. Посл. сооб.
Зарубежное кино [DVDRip, Low-Res HDRip, и т.д.] Викинги / Outlander (Ховард МакКейн) [2008 г., фантастика, боевик, приключения, BDRip] MVO + Original Доктор Ватсон
3 | 2

0 | 864

51

27.12.2012 17:27

T Зарубежное кино [DVDRip, Low-Res HDRip, и т.д.] Викинги / Northmen - A Viking Saga (Клаудио Фах) [2014 г., Боевик, Приключения, WEB-DLRip-AVC] Dub (RUS, iTunes Russia) Ведьмочка
0 | 0

1 | 876

28

02.01.2015 00:56

T Зарубежное кино [DVDRip, Low-Res HDRip, и т.д.] Викинги / Northmen-A Viking Saga (Клаудио Фах) [20014 г., боевик, приключения, HDRip] Dub (iTunes) 90ytr90
3 | 0

0 | 852

7

21.02.2015 13:43

T Зарубежное кино [DVDRip, Low-Res HDRip, и т.д.] Викинги / Northmen-A Viking Saga (Клаудио Фах) [20014 г., боевик, приключения, HDRip] Dub (iTunes) + Original (Ger) 90ytr90
1 | 0

0 | 610

5

21.02.2015 13:49

T Зарубежное кино [DVDRip, Low-Res HDRip, и т.д.] Викинги / Northmen-A Viking Saga (Клаудио Фах) [20014 г., боевик, приключения, HDRip-AVC] Dub (iTunes) + Original (Eng) 90ytr90
11 | 3

0 | 647

7

21.02.2015 13:53

T Зарубежное кино [DVDRip, Low-Res HDRip, и т.д.] Викинги / Northmen-A Viking Saga (Клаудио Фах) [20014 г., боевик, приключения, HDRip] Dub (iTunes) 90ytr90
0 | 0

0 | 729

12

22.02.2015 11:49

Зарубежные сериалы Викинги / Vikings / серии 01-09 (9) (Киаран Доннелли, Йохан Ренк, Кен Джиротти) [2013 г., боевик, драма, военный, история, WEB-DLRip] MVO (BaibaKo) + Eng 90ytr90
0 | 1

0 | 2697

27

09.04.2013 11:37

Зарубежные сериалы Викинги / Vikings / Сезон 1 / Серии 1-9 (9) (Киаран Доннелли, Йохан Ренк) [2013 г., Боевик, драма, военный, история, WEBDLRip-AVC] MVO + Original Чертёнок
0 | 0

1 | 684

30

05.05.2013 07:17

Зарубежные сериалы Викинги / Vikings / сезон 2 / серии 01-10 (10) (Киаран Доннелли, Йохан Ренк, Кен Джиротти) [2013 г., боевик, драма, военный, история, WEB-DLRip] MVO (BaibaKo) + Eng 90ytr90
14 | 3

0 | 1968

36

06.03.2014 05:18

Зарубежные сериалы Викинги / Vikings / Сезоны 1-3 (29 серий из 29) (Кен Джиротти, Киаран Доннелли, Джефф Вулнаф) [2013-2015 г., боевик, драма, военный, история, WEB-DLRip] MVO (NewStudio) + Original older
13 | 3

0 | 644

19

11.09.2015 05:56


Яндекс.Метрика powered by Sphinx


В Н И М А Н И Е
Сайт не распространяет и не хранит электронные версии произведений, а лишь бесплатно и без коммерческой выгоды (не требуя взамен платы,
SMS и т.д.) предоставляет доступ к создаваемому пользователями каталогу ссылок на торрент-файлы, которые содержат только списки хеш-сумм.
Убедительная просьба с жалобами обращаться напрямую к пользователю, разместившему торрент файл.

Вверх