Loading...
Error

Одержимость Майкла Кинга / The Possession of Michael King (Дэвид Юнг) [2014 г., Ужасы, HDRip] Dub (RUS, Чистый звук)

Статистика раздачи
Размер:  1,36 GB   |    Зарегистрирован:  1 год 11 месяцев   |    Скачан:  7 раз

Полного источника не было: 4 месяца 19 дней

Сидов:  0  |  0 KB/s  ]   Личеров:  0  |  0 KB/s  ]

* - сиды/пиры с внешних источников

   
 
Автор Сообщение

Ведьмочка Пол:Жен

01-Янв-2015 05:37

Одержимость Майкла Кинга / The Possession of Michael King
«Зло не отпустит тебя»


Страна: США
Год выпуска: 2014
Жанр: Ужасы
Продолжительность: 01:23:24
Режиссёр: Дэвид Юнг
В ролях: Шэйн Джонсон, Элла Андерсон, Кара Пифко, Кристал Альварез, Томас Арана, Люк Бэйнс, Дейл Дикки, Каллен Дуглас, Майкл Рэй Эскамиллья, Рамона Дж. Фаррингтон
Сюжет фильма:
Главный герой фильма — режиссер-документалист, который не верит ни в Бога, ни в дьявола. Когда умирает его жена, он решает снять фильм о религии и спиритуализме и доказать, что вся мистика — это просто выдумка. В процессе съемок он встречается с демонологами, некромантами и оккультистами, которые испытывают на нем самые темные и сильные заклятия. Эти обряды пробуждают неведомые и безудержные силы зла…

Озвучивание:
  • Дублированный, Русский [Чистый звук]

Качество видео: HDRip
Формат: AVI

Видео: XviD, 720x400 (16:9), 23.976 fps, ~1947 Кбит/сек
Аудио: AC-3, 384 Кбит/сек, 2 Канала, 48.0 КГц



Общее
Полное имя : \The Possession of Michael King.2014.D.HDRip.1400MB.avi
Формат : AVI
Формат/Информация : Audio Video Interleave
Размер файла : 1,36 Гбайт
Продолжительность : 1 ч. 23 м.
Общий поток : 2340 Кбит/сек
Программа кодирования : VirtualDubMod 1.5.10.2 (build 2540/release)
Библиотека кодирования : VirtualDubMod build 2540/release

Видео
Идентификатор : 0
Формат : MPEG-4 Visual
Профиль формата : Advanced Simple@L5
Параметр BVOP формата : 2
Параметр QPel формата : Нет
Параметр GMC формата : Без точки перехода
Параметр матрицы формата : Default (H.263)
Идентификатор кодека : XVID
Идентификатор кодека/Подсказка : XviD
Продолжительность : 1 ч. 23 м.
Битрейт : 1947 Кбит/сек
Ширина : 720 пикселей
Высота : 400 пикселей
Соотношение сторон : 16:9
Частота кадров : 23,976 кадра/сек
Цветовое пространство : YUV
Субдискретизация насыщенности : 4:2:0
Битовая глубина : 8 бит
Тип развёртки : Прогрессивная
Метод сжатия : С потерями
Бит/(Пиксели*Кадры) : 0.282
Размер потока : 1,13 Гбайт (83%)
Библиотека кодирования : XviD 1.2.1 (UTC 2008-12-04)

Аудио
Идентификатор : 1
Формат : AC-3
Формат/Информация : Audio Coding 3
Расширение режима : CM (complete main)
Параметр Endianness формата : Big
Идентификатор кодека : 2000
Продолжительность : 1 ч. 23 м.
Вид битрейта : Постоянный
Битрейт : 384 Кбит/сек
Каналы : 2 канала
Расположение каналов : Front: L R
Частота : 48,0 КГц
Битовая глубина : 16 бит
Метод сжатия : С потерями
Размер потока : 229 Мбайт (16%)
Выравнивание : Разделение по промежуткам
Продолжительность промежутка : 42 мс. (1,00 видеокадр)
Время предзагрузки промежутка : 500 мс.

picpicpicpicpic
Для увеличения картинки щелкните мышкой по превью



Этот торрент недоступен для скачивания без регистрации, однако доступен по публичной magnet-ссылке (источники с публичных трекеров). Перед использованием ссылки прочтите, пожалуйста Пользовательское соглашение, а также как можно дольше оставайтесь на раздаче! Для того, чтобы скачать сам торрент-файл (который видит больше источников), а также для того, чтобы поблагодарить релизера, вам необходимо зарегистрироваться. Если регистрироваться лень - вы можете также попробовать скачать релиз по нашим партнерским ссылкам ниже.

[underverse.su].t47878.torrent
Трекер: Зарегистрирован   [ 01.01.2015 05:37 ]  

Статус: T временная (by Ведьмочка at 01.01.2015 05:37)
Поблагодарили: пока никто не поблагодарил...
Тип торрента: публичный - доступные источники с открытых трекеров: 
Размер: 1,36 GB (занимает 0,31 DVDR, для записи нужно 1 болванка DVDR/RW)
 
 
Похожие темы
Форум Тема Автор Торрент Отв. Посл. сооб.
Зарубежное кино [DVDRip, Low-Res HDRip, и т.д.] Одержимость / Wicker Park (Пол МакГиган) [2004 г., триллер, драма, мелодрама, детектив, HDTVRip-AVC] Dub + Original garry
39 | 4

1 | 1103

21

16.11.2012 17:30

Зарубежное кино [DVDRip, Low-Res HDRip, и т.д.] Одержимость вуду / Voodoo Possession (Уолтер Бохолст) [2013 г., Ужасы, Драма, Детектив, HDRip] DVO (RUS, Влад & Снежинка) Ведьмочка
16 | 2

0 | 494

10

27.08.2014 07:35

T Зарубежное кино [DVDRip, Low-Res HDRip, и т.д.] Одержимость Майкла Кинга / The Possession of Michael King (Дэвид Юнг) [2014 г., Ужасы, HDRip] Dub (RUS) + Original (ENG) Звук с CAMRip Ведьмочка
80 | 7

0 | 852

30

07.09.2014 20:35

Зарубежное кино [DVDRip, Low-Res HDRip, и т.д.] Одержимость Майкла Кинга / The Possession of Michael King (Дэвид Юнг) [2014 г., Ужасы, BDRip] DVO (RUS, lord666 & Miori) Ведьмочка
16 | 1

0 | 713

18

06.10.2014 04:35

Зарубежное кино [DVDRip, Low-Res HDRip, и т.д.] Одержимость / The Taking (Адам Робител) [2014 г., Ужасы, Триллер, HDRip] VO (RUS, П. Морозов) Ведьмочка
4 | 0

0 | 13767

16

25.12.2014 09:41

T Зарубежное кино [DVDRip, Low-Res HDRip, и т.д.] Одержимость Майкла Кинга / The Possession of Michael King (Дэвид Юнг / David Jung) [2014 г., ужасы, BDRip-AVC] Dub (чистый звук) + Original (Eng) 90ytr90
3 | 0

0 | 396

5

02.01.2015 08:14

Зарубежное кино [DVDRip, Low-Res HDRip, и т.д.] Одержимость Майкла Кинга / The Possession of Michael King (Дэвид Юнг / David Jung) [2014 г., ужасы, BDRip-AVC] AVO (Дольский) + Original (Eng) 90ytr90
6 | 0

0 | 334

0

02.01.2015 08:23

Зарубежное кино [DVDRip, Low-Res HDRip, и т.д.] Одержимость Майкла Кинга / The Possession of Michael King (Дэвид Юнг / David Jung) [2014 г., ужасы, HDRip] AVO (Дольский) 90ytr90
17 | 0

0 | 391

3

02.01.2015 08:35

Зарубежное кино [DVDRip, Low-Res HDRip, и т.д.] Одержимость / Whiplash (Дамьен Шазель / Damien Chazelle) [2014 г., драма, HDRip] MVO 90ytr90
8 | 0

0 | 291

17

06.02.2015 06:42

Зарубежное кино [DVDRip, Low-Res HDRip, и т.д.] Одержимость / Whiplash (Дамьен Шазель / Damien Chazelle) [2014 г., драма, HDRip] MVO + Original (Eng) 90ytr90
2 | 0

0 | 277

14

06.02.2015 06:55


Яндекс.Метрика powered by Sphinx


В Н И М А Н И Е
Сайт не распространяет и не хранит электронные версии произведений, а лишь бесплатно и без коммерческой выгоды (не требуя взамен платы,
SMS и т.д.) предоставляет доступ к создаваемому пользователями каталогу ссылок на торрент-файлы, которые содержат только списки хеш-сумм.
Убедительная просьба с жалобами обращаться напрямую к пользователю, разместившему торрент файл.

Вверх