Loading...
Error

Судья / The Judge (Дэвид Добкин) [2014 г., Драма, WEB-DLRip] Dub (RUS, iTunes Russia)

Статистика раздачи
Размер:  2,18 GB   |    Зарегистрирован:  1 год 11 месяцев   |    Скачан:  19 раз

Полного источника не было: 1 год 2 месяца

Сидов:  0  |  0 KB/s  ]   Личеров:  0  |  0 KB/s  ]

* - сиды/пиры с внешних источников

   
 
Автор Сообщение

Ведьмочка Пол:Жен

31-Дек-2014 02:55

Судья / The Judge
«Не судите, да не судимы будете»


Страна: США
Год выпуска: 2014
Жанр: Драма
Продолжительность: 02:21:29
Режиссёр: Дэвид Добкин
В ролях: Роберт Дауни мл., Роберт Дювалл, Вера Фармига, Билли Боб Торнтон, Винсент Д’Онофрио, Джереми Стронг, Дэкс Шепард, Лейтон Мистер, Кен Ховард, Эмма Трамбле
Сюжет фильма:
В центре истории — успешный адвокат, который приезжает в родной город на похороны матери и узнаёт, что его отца, городского судью, подозревают в убийстве. Герой решает задержаться, чтобы выяснить правду, и постепенно лучше узнаёт родственников, с которыми давно вообще никак не общался.

Озвучивание:
  • Дублированный, Русский [iTunes Russia]


Качество видео: WEB-DLRip
Формат: AVI

Видео: XviD, 720x304 (2.35:1), 23.976 fps, ~1809 Кбит/сек
Аудио: AC-3, 384 Кбит/сек, 6 Каналов, 48.0 КГц

Rip by:



Общее
Полное имя : \Sud'ya_2014_WEB-DLRip___[scarabey.org].avi
Формат : AVI
Формат/Информация : Audio Video Interleave
Профиль формата : OpenDML
Размер файла : 2,18 Гбайт
Продолжительность : 2 ч. 21 м.
Общий поток : 2205 Кбит/сек
Программа кодирования : VirtualDubMod 1.5.10.3 | www.virtualdub-fr.org || (build 2550/release)
Библиотека кодирования : VirtualDubMod build 2550/release

Видео
Идентификатор : 0
Формат : MPEG-4 Visual
Профиль формата : Advanced Simple@L5
Параметр BVOP формата : 1
Параметр QPel формата : Нет
Параметр GMC формата : Без точки перехода
Параметр матрицы формата : Выборочная
Идентификатор кодека : XVID
Идентификатор кодека/Подсказка : XviD
Продолжительность : 2 ч. 21 м.
Битрейт : 1809 Кбит/сек
Ширина : 720 пикселей
Высота : 304 пикселя
Соотношение сторон : 2,35:1
Частота кадров : 23,976 кадра/сек
Цветовое пространство : YUV
Субдискретизация насыщенности : 4:2:0
Битовая глубина : 8 бит
Тип развёртки : Прогрессивная
Метод сжатия : С потерями
Бит/(Пиксели*Кадры) : 0.345
Размер потока : 1,79 Гбайт (82%)
Библиотека кодирования : XviD 1.2.1 (UTC 2008-12-04)

Аудио
Идентификатор : 1
Формат : AC-3
Формат/Информация : Audio Coding 3
Расширение режима : CM (complete main)
Параметр Endianness формата : Big
Идентификатор кодека : 2000
Продолжительность : 2 ч. 21 м.
Вид битрейта : Постоянный
Битрейт : 384 Кбит/сек
Каналы : 6 каналов
Расположение каналов : Front: L C R, Side: L R, LFE
Частота : 48,0 КГц
Битовая глубина : 16 бит
Метод сжатия : С потерями
Размер потока : 389 Мбайт (17%)
Выравнивание : Разделение по промежуткам
Продолжительность промежутка : 42 мс. (1,00 видеокадр)
Время предзагрузки промежутка : 500 мс.


picpicpicpicpic
Для увеличения картинки щелкните мышкой по превью



Этот торрент недоступен для скачивания без регистрации, однако доступен по публичной magnet-ссылке (источники с публичных трекеров). Перед использованием ссылки прочтите, пожалуйста Пользовательское соглашение, а также как можно дольше оставайтесь на раздаче! Для того, чтобы скачать сам торрент-файл (который видит больше источников), а также для того, чтобы поблагодарить релизера, вам необходимо зарегистрироваться. Если регистрироваться лень - вы можете также попробовать скачать релиз по нашим партнерским ссылкам ниже.

[underverse.su].t47857.torrent
Трекер: Зарегистрирован   [ 31.12.2014 02:55 ]  

Статус: T временная (by Ведьмочка at 31.12.2014 02:55)
Поблагодарили: 1 человек
Тип торрента: публичный - доступные источники с открытых трекеров: 
Размер: 2,18 GB (занимает 1/2 DVDR, для записи нужно 1 болванка DVDR/RW)
 
 
Похожие темы
Форум Тема Автор Торрент Отв. Посл. сооб.
T Зарубежное кино [DVDRip, Low-Res HDRip, и т.д.] Судья / The Judge (Дэвид Добкин / David Dobkin) [2014 г., драма, WEB-DLRip-AVC] Dub (iTunes) + Original (Eng) + Sub (Rus) 90ytr90
3 | 0

0 | 478

30

01.01.2015 13:09

Зарубежное кино [DVDRip, Low-Res HDRip, и т.д.] Судья / The Judge (Дэвид Добкин / David Dobkin) [2014 г., драма, BDRip-AVC] Dub + Ukr + Original (Eng) + Subs 90ytr90
3 | 1

0 | 352

5

25.01.2015 20:22

Зарубежное кино [DVDRip, Low-Res HDRip, и т.д.] Судья / The Judge (Дэвид Добкин / David Dobkin) [2014 г., драма, BDRip] Dub 90ytr90
5 | 0

0 | 434

26

26.01.2015 06:46

Зарубежное кино [DVDRip, Low-Res HDRip, и т.д.] Судья / The Judge (Дэвид Добкин / David Dobkin) [2014 г., драма, BDRip-AVC] Dub + Subs 90ytr90
3 | 0

0 | 429

24

26.01.2015 07:44

Зарубежное кино [DVDRip, Low-Res HDRip, и т.д.] Судья / The Judge (Дэвид Добкин / David Dobkin) [2014 г., драма, BDRip] Dub + Original (Eng) + Subs 90ytr90
1 | 0

0 | 475

14

26.01.2015 08:29

* Зарубежное кино [DVDRip, Low-Res HDRip, и т.д.] Судья / The Judge (Дэвид Добкин / David Dobkin) [2014 г., драма, HDRip] AVO (Сербин) 90ytr90

0 | 603

25.02.2015 04:32

Зарубежное кино [HDDVDRip / BDRip / WEB-DL / HDTV 1080/720р] Судья / The Judge (Дэвид Добкин / David Dobkin) [2014 г., драма, BDRip 1080p] Dub + Ukr + Original (Eng) + Subs 90ytr90
2 | 0

0 | 403

9

25.01.2015 20:01

Зарубежное кино [HDDVDRip / BDRip / WEB-DL / HDTV 1080/720р] Судья / The Judge (Дэвид Добкин / David Dobkin) [2014 г., драма, BDRip 720p] Dub + Ukr + Original (Eng) + Commentary + Subs 90ytr90
5 | 0

0 | 344

1

25.01.2015 20:13

Зарубежное кино [HDDVDRip / BDRip / WEB-DL / HDTV 1080/720р] Судья / The Judge (Дэвид Добкин / David Dobkin) [2014 г., драма, BDRip 720p] Dub + Ukr + Original (Eng) + Subs 90ytr90
4 | 0

0 | 477

13

26.01.2015 08:12

nemos Пол:Муж

31-Дек-2014 03:06

:super:

Яндекс.Метрика powered by Sphinx


В Н И М А Н И Е
Сайт не распространяет и не хранит электронные версии произведений, а лишь бесплатно и без коммерческой выгоды (не требуя взамен платы,
SMS и т.д.) предоставляет доступ к создаваемому пользователями каталогу ссылок на торрент-файлы, которые содержат только списки хеш-сумм.
Убедительная просьба с жалобами обращаться напрямую к пользователю, разместившему торрент файл.

Вверх