Loading...
Error

Босс в гостиной / Un boss in salotto (Лука Миньеро) [2014 г., Комедия, HDRip] VO (RUS, И. Головин)

Статистика раздачи
Размер:  1,43 GB   |    Зарегистрирован:  1 год 11 месяцев   |    Скачан:  7 раз

Полного источника не было: 1 месяц 25 дней

Сидов:  0  |  0 KB/s  ]   Личеров:  0  |  0 KB/s  ]

* - сиды/пиры с внешних источников

   
 
Автор Сообщение

Ведьмочка Пол:Жен

31-Дек-2014 02:42

Босс в гостиной / Un boss in salotto


Страна: Италия
Год выпуска: 2014
Жанр: Комедия
Продолжительность: 01:42:05
Режиссёр: Лука Миньеро
В ролях: Паола Кортеллези, Рокко Папалео, Лука Арджентеро, Анджела Финоккьяро, Але, Франц, Массимо Де Лоренцо
Сюжет фильма:
Кристина успешный врач-трансплантолог, живущий в небольшом городке на севере Италии. Ей удалось построить идеальную семью с мужем Микеле и двумя прекрасными детьми.

Однажды после звонка в полицейский участок Кристина узнаёт, что её брат замешан в крупном процессе над мафией. Брат, которого, она не видела 15 лет, просит провести некоторое время под домашним арестом в её доме. Через силу Кристина даёт своё согласие. Все планы и привычная рутина семьи пойдут кувырком после появления в ней не приученного к хорошим манерам всего в татуировках и золотых цепях дядюшки Чиро.


Озвучивание:
  • Любительский, Одноголосный, Русский [И. Головин]


Качество видео: HDRip
Формат: AVI

Видео: XviD, 720x304 (2.35:1), 23.976 fps, ~1803 Кбит/сек
Аудио: AC-3, 192 Кбит/сек, 2 Канала, 48.0 КГц



Общее
Полное имя : \Босс в гостиной.2014.HDRip.avi
Формат : AVI
Формат/Информация : Audio Video Interleave
Размер файла : 1,43 Гбайт
Продолжительность : 1 ч. 42 м.
Общий поток : 2004 Кбит/сек
Программа кодирования : VirtualDubMod 1.5.10.3 | www.virtualdub-fr.org || (build 2550/release)
Библиотека кодирования : VirtualDubMod build 2550/release

Видео
Идентификатор : 0
Формат : MPEG-4 Visual
Профиль формата : Advanced Simple@L5
Параметр BVOP формата : Нет
Параметр QPel формата : Нет
Параметр GMC формата : Без точки перехода
Параметр матрицы формата : Default (MPEG)
Идентификатор кодека : XVID
Идентификатор кодека/Подсказка : XviD
Продолжительность : 1 ч. 42 м.
Битрейт : 1803 Кбит/сек
Ширина : 720 пикселей
Высота : 304 пикселя
Соотношение сторон : 2,35:1
Частота кадров : 23,976 кадра/сек
Цветовое пространство : YUV
Субдискретизация насыщенности : 4:2:0
Битовая глубина : 8 бит
Тип развёртки : Прогрессивная
Метод сжатия : С потерями
Бит/(Пиксели*Кадры) : 0.344
Размер потока : 1,29 Гбайт (90%)
Библиотека кодирования : XviD 62

Аудио
Идентификатор : 1
Формат : AC-3
Формат/Информация : Audio Coding 3
Расширение режима : CM (complete main)
Параметр Endianness формата : Big
Идентификатор кодека : 2000
Продолжительность : 1 ч. 42 м.
Вид битрейта : Постоянный
Битрейт : 192 Кбит/сек
Каналы : 2 канала
Расположение каналов : Front: L R
Частота : 48,0 КГц
Битовая глубина : 16 бит
Метод сжатия : С потерями
Размер потока : 140 Мбайт (10%)
Выравнивание : Разделение по промежуткам
Продолжительность промежутка : 42 мс. (1,00 видеокадр)
Время предзагрузки промежутка : 500 мс.


picpicpicpicpic
Для увеличения картинки щелкните мышкой по превью



Этот торрент недоступен для скачивания без регистрации, однако доступен по публичной magnet-ссылке (источники с публичных трекеров). Перед использованием ссылки прочтите, пожалуйста Пользовательское соглашение, а также как можно дольше оставайтесь на раздаче! Для того, чтобы скачать сам торрент-файл (который видит больше источников), а также для того, чтобы поблагодарить релизера, вам необходимо зарегистрироваться. Если регистрироваться лень - вы можете также попробовать скачать релиз по нашим партнерским ссылкам ниже.

[underverse.su].t47856.torrent
Трекер: Зарегистрирован   [ 31.12.2014 02:42 ]  

Статус: проверено (by Ведьмочка at 31.12.2014 02:42)
Поблагодарили: 1 человек
Тип торрента: публичный - доступные источники с открытых трекеров: 
Размер: 1,43 GB (занимает 0,33 DVDR, для записи нужно 1 болванка DVDR/RW)
 
 

nemos Пол:Муж

31-Дек-2014 02:51

:good: :Rose:

Яндекс.Метрика powered by Sphinx


В Н И М А Н И Е
Сайт не распространяет и не хранит электронные версии произведений, а лишь бесплатно и без коммерческой выгоды (не требуя взамен платы,
SMS и т.д.) предоставляет доступ к создаваемому пользователями каталогу ссылок на торрент-файлы, которые содержат только списки хеш-сумм.
Убедительная просьба с жалобами обращаться напрямую к пользователю, разместившему торрент файл.

Вверх