Loading...
Error

Сюзанн / Suzanne (Кэйтель Куиливье) [2013 г., драма, HDRip] VO [Lord32x]

Статистика раздачи
Размер:  1,37 GB   |    Зарегистрирован:  1 год 11 месяцев   |    Скачан:  3 раза

Полного источника не было: 1 год 2 месяца

Сидов:  0  |  0 KB/s  ]   Личеров:  0  |  0 KB/s  ]

* - сиды/пиры с внешних источников

   
 
Автор Сообщение

Паукан Пол:Муж

29-Дек-2014 17:47

Сюзанн / Suzanne


Название: Сюзанн
Оригинальное название: Suzanne
Год выпуска: 2013
Жанр: Драма
Режиссёр: Кэйтель Куиливье
В ролях: Сара Форестье, Франсуа Дамиенс, Адель Энель, Поль Ами, Лола Дуэньяс, Корина Масьеро, Анн Лё Ни, Карим Леклу, Аполлония Луизетти, Фани Занини

Описание: Став матерью в подростковом возрасте, Сюзанна живет вместе с отцом дальнобойщиком и сестрой. Жизнь Сюзанны резко меняется после того, как она влюбляется в Жюльена, жулика, сбивающего её с пути. Затем следуют побег, тюрьма и сумасшедшая любовь, ради которой она отказывается от всего…



Страна: Франция
Студия: Move Movie, Mars Films, Panache Productions, Compagnie Cinematographique
Продолжительность: 01:33:52
Перевод: Любительский (закадровый) одноголосый [Lord32x]

Кодек: XviD
Качество: HDRip
Видео: 1638 Кбит/с, 720x384
Аудио: AC3, 6 ch, 448 Кбит/с
Субтитры: Отсутствуют
File: Suzanne.2013.HDRip.1400MB.avi

General
Complete name : D:Видео 2Suzanne.2013.HDRip.1400MB.avi
Format : AVI
Format/Info : Audio Video Interleave
File size : 1.37 GiB
Duration : 1h 33mn
Overall bit rate : 2 096 Kbps
Writing application : VirtualDubMod 1.5.10.3 | www.virtualdub-fr.org || (build 2550/release)
Writing library : VirtualDubMod build 2550/release

Video
ID : 0
Format : MPEG-4 Visual
Format profile : Advanced Simple@L5
Format settings, BVOP : 2
Format settings, QPel : No
Format settings, GMC : No warppoints
Format settings, Matrix : Default (H.263)
Codec ID : XVID
Codec ID/Hint : XviD
Duration : 1h 33mn
Bit rate : 1 638 Kbps
Width : 720 pixels
Height : 384 pixels
Display aspect ratio : 1.85:1
Frame rate : 24.000 fps
Color space : YUV
Chroma subsampling : 4:2:0
Bit depth : 8 bits
Scan type : Progressive
Compression mode : Lossy
Bits/(Pixel*Frame) : 0.247
Stream size : 1.07 GiB (78%)
Writing library : XviD 73

Audio
ID : 1
Format : AC-3
Format/Info : Audio Coding 3
Mode extension : CM (complete main)
Format settings, Endianness : Big
Codec ID : 2000
Duration : 1h 33mn
Bit rate mode : Constant
Bit rate : 448 Kbps
Channel(s) : 6 channels
Channel positions : Front: L C R, Side: L R, LFE
Sampling rate : 48.0 KHz
Bit depth : 16 bits
Compression mode : Lossy
Stream size : 301 MiB (21%)
Alignment : Split accross interleaves
Interleave, duration : 42 ms (1.00 video frame)
Interleave, preload duration : 500 ms
pic pic pic
Для увеличения картинки щелкните мышкой по превью

Этот торрент недоступен для скачивания без регистрации, однако доступен по публичной magnet-ссылке (источники с публичных трекеров). Перед использованием ссылки прочтите, пожалуйста Пользовательское соглашение, а также как можно дольше оставайтесь на раздаче! Для того, чтобы скачать сам торрент-файл (который видит больше источников), а также для того, чтобы поблагодарить релизера, вам необходимо зарегистрироваться. Если регистрироваться лень - вы можете также попробовать скачать релиз по нашим партнерским ссылкам ниже.

[underverse.su].t47808.torrent
Трекер: Зарегистрирован   [ 29.12.2014 17:47 ]  

Статус: проверено (by Паукан at 29.12.2014 17:47)
Поблагодарили: пока никто не поблагодарил...
Тип торрента: публичный - доступные источники с открытых трекеров: 
Размер: 1,37 GB (занимает 0,31 DVDR, для записи нужно 1 болванка DVDR/RW)
 
 

Яндекс.Метрика powered by Sphinx


В Н И М А Н И Е
Сайт не распространяет и не хранит электронные версии произведений, а лишь бесплатно и без коммерческой выгоды (не требуя взамен платы,
SMS и т.д.) предоставляет доступ к создаваемому пользователями каталогу ссылок на торрент-файлы, которые содержат только списки хеш-сумм.
Убедительная просьба с жалобами обращаться напрямую к пользователю, разместившему торрент файл.

Вверх