Loading...
Error

Прямо в сердце / Kill Dil (Шаад Али) [2014 г., боевик, триллер, драма, мелодрама, криминал, HDRip] DVO [DeadSno & den904]

Статистика раздачи
Размер:  1,46 GB   |    Зарегистрирован:  1 год 11 месяцев   |    Скачан:  4 раза

Полного источника не было: 10 месяцев

Сидов:  0  |  0 KB/s  ]   Личеров:  0  |  0 KB/s  ]

* - сиды/пиры с внешних источников

   
 
Автор Сообщение

Паукан Пол:Муж

29-Дек-2014 17:27

Прямо в сердце / Kill Dil


Название: Прямо в сердце
Оригинальное название: Kill Dil
Год выпуска: 2014
Жанр: боевик, триллер, драма, мелодрама, криминал
Режиссёр: Шаад Али
Актеры: Ранвир Сингх, Али Зафар, Паринити Чопра, Говинда, Шаад Али, Сукхвиндер Сингх, Роки Верма

Описание: Дев и Туту не знают своего происхождения. Их вырастил местный главарь мафии Бхайяджи. Он сделал из них орудие убийства. Выполняя очередное задание, Дев встречает красавицу Дишу и без памяти влюбляется в неё. Он решает бросить свою жалкую жизнь бандита и начать жизнь честного человека. Но банда главаря мафии не желает его так легко отпускать. Они начинают преследовать парня по пятам, в результате чего вмешивается Туту…



Страна: Индия
Продолжительность: 01:58:04
Перевод: Любительский (двухголосый) закадровый [DeadSno & den904]

Кодек: XviD
Качество: HDRip
Видео: 720x304 (2.37:1), 24.000 fps, XviD build 50 ~1374 kbps avg, 0.26 bit/pixel
Звук: 48 kHz, AC3 Dolby Digital, 3/2 (L,C,R,l,r) + LFE ch, ~384 kbps
Субтитры: Русские (на песни)
File: Pryamo.V.Serdce.2014.HDRip.avi

General
Complete name : D:Видео 2Pryamo.V.Serdce.2014.HDRip.avi
Format : AVI
Format/Info : Audio Video Interleave
File size : 1.46 GiB
Duration : 1h 58mn
Overall bit rate : 1 768 Kbps
Movie name : Kill.Dil.2014.HDRip.XviD.LDVO-soso4eg
Director : soso4eg
Writing application : VirtualDubMod 1.5.10.2 (build 2540/release)
Original source form/Name : Hindi
Copyright : специально для BitTorrent
Comment : пер.LDVO по субтитрам Honey&Haseena

Video
ID : 0
Format : MPEG-4 Visual
Format profile : Advanced Simple@L5
Format settings, BVOP : 2
Format settings, QPel : No
Format settings, GMC : No warppoints
Format settings, Matrix : Default (H.263)
Codec ID : XVID
Codec ID/Hint : XviD
Duration : 1h 58mn
Bit rate : 1 374 Kbps
Width : 720 pixels
Height : 304 pixels
Display aspect ratio : 2.35:1
Frame rate : 24.000 fps
Color space : YUV
Chroma subsampling : 4:2:0
Bit depth : 8 bits
Scan type : Progressive
Compression mode : Lossy
Bits/(Pixel*Frame) : 0.262
Stream size : 1.13 GiB (78%)
Writing library : XviD 1.2.1 (UTC 2008-12-04)

Audio
ID : 1
Format : AC-3
Format/Info : Audio Coding 3
Mode extension : CM (complete main)
Format settings, Endianness : Big
Codec ID : 2000
Duration : 1h 58mn
Bit rate mode : Constant
Bit rate : 384 Kbps
Channel(s) : 6 channels
Channel positions : Front: L C R, Side: L R, LFE
Sampling rate : 48.0 KHz
Bit depth : 16 bits
Compression mode : Lossy
Stream size : 324 MiB (22%)
Alignment : Split accross interleaves
Interleave, duration : 42 ms (1.00 video frame)
Interleave, preload duration : 500 ms
pic pic pic
Для увеличения картинки щелкните мышкой по превью

Этот торрент недоступен для скачивания без регистрации, однако доступен по публичной magnet-ссылке (источники с публичных трекеров). Перед использованием ссылки прочтите, пожалуйста Пользовательское соглашение, а также как можно дольше оставайтесь на раздаче! Для того, чтобы скачать сам торрент-файл (который видит больше источников), а также для того, чтобы поблагодарить релизера, вам необходимо зарегистрироваться. Если регистрироваться лень - вы можете также попробовать скачать релиз по нашим партнерским ссылкам ниже.

[underverse.su].t47806.torrent
Трекер: Зарегистрирован   [ 29.12.2014 17:27 ]  

Статус: проверено (by Паукан at 29.12.2014 17:27)
Поблагодарили: пока никто не поблагодарил...
Тип торрента: публичный - доступные источники с открытых трекеров: 
Размер: 1,46 GB (занимает 1/3 DVDR, для записи нужно 1 болванка DVDR/RW)
 
 

Яндекс.Метрика powered by Sphinx


В Н И М А Н И Е
Сайт не распространяет и не хранит электронные версии произведений, а лишь бесплатно и без коммерческой выгоды (не требуя взамен платы,
SMS и т.д.) предоставляет доступ к создаваемому пользователями каталогу ссылок на торрент-файлы, которые содержат только списки хеш-сумм.
Убедительная просьба с жалобами обращаться напрямую к пользователю, разместившему торрент файл.

Вверх