Loading...
Error

Пицца / Pizza (Акшай Акинени) [2014 г., ужасы, триллер, DVDRip] DVO [DeadSno & den904]

Статистика раздачи
Размер:  1,37 GB   |    Зарегистрирован:  1 год 11 месяцев   |    Скачан:  4 раза

Полного источника не было: 1 год 7 месяцев

Сидов:  0  |  0 KB/s  ]   Личеров:  0  |  0 KB/s  ]

* - сиды/пиры с внешних источников

   
 
Автор Сообщение

Паукан Пол:Муж

29-Дек-2014 17:24

Пицца / Pizza


Название: Пицца
Оригинальное название: Pizza
Год выхода: 2014
Жанр: Ужасы, Триллер
Режиссер: Акшай Акинени
В ролях: Акшай Оберой, Парвати Оманукутан, Дипаннита Шарма, Арунодай Синкх, Раджеш Шарма, Д. Сантош, Хуссэйн Далаль, Онкар Дас, Сонали Сачдэв

Описание: История про доставщика пиццы Кунала, который живёт со своей женой Никки. Она - начинающий писатель романов ужасов, в то время как Кунал совершенно не верит в сверхъестественные силы. Однако Никки продолжает убеждать своего мужа в их существовании. Как-то раз босс рассказывает Куналу, что его жена одержима неким духом. Окончательно убедиться в существовании сверхъестественного Кунала заставляют очередные клиенты, которые оказались не совсем обычными людьми…



Страна: Индия
Продолжительность: 01:47:29
Перевод: Двухголосый закадровый, любительский [DeadSno & den904]
Автор перевода: [Honey & Haseena]

Кодек: DivX
Качество: DVDRip
Видео: 1515 kbps, 720x304
Звук: 2/0 (L,R) ch, ~192 kbps
Субтитры: Отсутствуют

Семпл
File: Пицца.2014.avi

General
Complete name : D:Видео 2Пицца.2014.avi
Format : AVI
Format/Info : Audio Video Interleave
File size : 1.37 GiB
Duration : 1h 47mn
Overall bit rate : 1 826 Kbps
Writing application : VirtualDubMod 1.5.10.3 | www.virtualdub-fr.org || (build 2550/release)
Writing library : VirtualDubMod build 2550/release

Video
ID : 0
Format : MPEG-4 Visual
Format profile : Advanced Simple@L5
Format settings, BVOP : 1
Format settings, QPel : No
Format settings, GMC : No warppoints
Format settings, Matrix : Default (MPEG)
Codec ID : DX50
Codec ID/Hint : DivX 5
Duration : 1h 47mn
Bit rate : 1 624 Kbps
Width : 720 pixels
Height : 304 pixels
Display aspect ratio : 2.35:1
Frame rate : 23.976 fps
Color space : YUV
Chroma subsampling : 4:2:0
Bit depth : 8 bits
Scan type : Progressive
Compression mode : Lossy
Bits/(Pixel*Frame) : 0.309
Stream size : 1.22 GiB (89%)
Writing library : XviD 1.2.1 (UTC 2008-12-04)

Audio
ID : 1
Format : AC-3
Format/Info : Audio Coding 3
Mode extension : CM (complete main)
Format settings, Endianness : Big
Codec ID : 2000
Duration : 1h 47mn
Bit rate mode : Constant
Bit rate : 192 Kbps
Channel(s) : 2 channels
Channel positions : Front: L R
Sampling rate : 48.0 KHz
Bit depth : 16 bits
Compression mode : Lossy
Stream size : 148 MiB (11%)
Alignment : Split accross interleaves
Interleave, duration : 42 ms (1.00 video frame)
Interleave, preload duration : 500 ms
pic pic pic
Для увеличения картинки щелкните мышкой по превью

Этот торрент недоступен для скачивания без регистрации, однако доступен по публичной magnet-ссылке (источники с публичных трекеров). Перед использованием ссылки прочтите, пожалуйста Пользовательское соглашение, а также как можно дольше оставайтесь на раздаче! Для того, чтобы скачать сам торрент-файл (который видит больше источников), а также для того, чтобы поблагодарить релизера, вам необходимо зарегистрироваться. Если регистрироваться лень - вы можете также попробовать скачать релиз по нашим партнерским ссылкам ниже.

[underverse.su].t47805.torrent
Трекер: Зарегистрирован   [ 29.12.2014 17:24 ]  

Статус: проверено (by Паукан at 29.12.2014 17:25)
Поблагодарили: пока никто не поблагодарил...
Тип торрента: публичный - доступные источники с открытых трекеров: 
Размер: 1,37 GB (занимает 0,31 DVDR, для записи нужно 1 болванка DVDR/RW)
 
 

Яндекс.Метрика powered by Sphinx


В Н И М А Н И Е
Сайт не распространяет и не хранит электронные версии произведений, а лишь бесплатно и без коммерческой выгоды (не требуя взамен платы,
SMS и т.д.) предоставляет доступ к создаваемому пользователями каталогу ссылок на торрент-файлы, которые содержат только списки хеш-сумм.
Убедительная просьба с жалобами обращаться напрямую к пользователю, разместившему торрент файл.

Вверх