Loading...
Error

Ложь во спасение / The Good Lie (Филипп Фалардо) [2014 г., драма, HDRip] VO

Статистика раздачи
Размер:  1,31 GB   |    Зарегистрирован:  1 год 11 месяцев   |    Скачан:  2 раза

Полного источника не было: 1 год

Сидов:  0  |  0 KB/s  ]   Личеров:  0  |  0 KB/s  ]

* - сиды/пиры с внешних источников

   
 
Автор Сообщение

Паукан Пол:Муж

29-Дек-2014 16:32

Ложь во спасение / The Good Lie


Название: Ложь во спасение
Оригинальное название: The Good Lie
Год выпуска: 2014
Жанр: Драма
Режиссер: Филипп Фалардо
Актеры фильма: Риз Уизерспун, Арнольд Окенг, Хер Дуани, Эммануэль Джал, Кори Столл, Куот Виль, Феми Огунс, Сара Бэйкер, Линдси Гаррет

Описание: Военные беженцы из Судана получили разрешение на иммиграцию в Канзас-Сити, спустя 13 лет после того, как попали в лагерь беженцев, спасаясь от пуль солдат. Здесь им предстоит начать жизнь заново, найти работу, преодолевать трудности. "Потерянные мальчики Судана" - так назвали этих детей гражданской войны, разразившейся в Судане в 1983 году, когда сжигались целые деревни, а бомбы летели на мирные селения, уничтожая детей, стариков, женщин...



Страна: Кения, Индия, США
Студия: Alcon Entertainment , Black Label Media , Blue Sky Films, Good Lie Productions
Продолжительность: 01:50:00
Перевод: Фильма на русский язык [Janetta]
Озвучено: Любительский (закадровый) одноголосый [П. Морозов]

Кодек: XviD
Качество: НDRip
Видео: XviD, 1499 Кбит/с, 720x400
Аудио: AC3, 2 ch, 192 Кбит/с
Субтитры: Отсутствуют
File: Ложь во спасение .2014.avi

General
Complete name : D:Видео 2Ложь во спасение .2014.avi
Format : AVI
Format/Info : Audio Video Interleave
File size : 1.31 GiB
Duration : 1h 50mn
Overall bit rate : 1 700 Kbps
Writing application : VirtualDubMod 1.5.10.2 (build 2540/release)
Writing library : VirtualDubMod build 2540/release

Video
ID : 0
Format : MPEG-4 Visual
Format profile : Advanced Simple@L5
Format settings, BVOP : 2
Format settings, QPel : No
Format settings, GMC : No warppoints
Format settings, Matrix : Default (H.263)
Muxing mode : Packed bitstream
Codec ID : XVID
Codec ID/Hint : XviD
Duration : 1h 50mn
Bit rate : 1 499 Kbps
Width : 720 pixels
Height : 400 pixels
Display aspect ratio : 16:9
Frame rate : 23.976 fps
Color space : YUV
Chroma subsampling : 4:2:0
Bit depth : 8 bits
Scan type : Progressive
Compression mode : Lossy
Bits/(Pixel*Frame) : 0.217
Stream size : 1.15 GiB (88%)
Writing library : XviD 64

Audio
ID : 1
Format : AC-3
Format/Info : Audio Coding 3
Mode extension : CM (complete main)
Format settings, Endianness : Big
Codec ID : 2000
Duration : 1h 50mn
Bit rate mode : Constant
Bit rate : 192 Kbps
Channel(s) : 2 channels
Channel positions : Front: L R
Sampling rate : 48.0 KHz
Bit depth : 16 bits
Compression mode : Lossy
Stream size : 151 MiB (11%)
Alignment : Split accross interleaves
Interleave, duration : 42 ms (1.00 video frame)
Interleave, preload duration : 500 ms
pic pic pic
Для увеличения картинки щелкните мышкой по превью

Этот торрент недоступен для скачивания без регистрации, однако доступен по публичной magnet-ссылке (источники с публичных трекеров). Перед использованием ссылки прочтите, пожалуйста Пользовательское соглашение, а также как можно дольше оставайтесь на раздаче! Для того, чтобы скачать сам торрент-файл (который видит больше источников), а также для того, чтобы поблагодарить релизера, вам необходимо зарегистрироваться. Если регистрироваться лень - вы можете также попробовать скачать релиз по нашим партнерским ссылкам ниже.

[underverse.su].t47787.torrent
Трекер: Зарегистрирован   [ 29.12.2014 16:32 ]  

Статус: проверено (by Паукан at 29.12.2014 16:32)
Поблагодарили: пока никто не поблагодарил...
Тип торрента: публичный - доступные источники с открытых трекеров: 
Размер: 1,31 GB (занимает 0,3 DVDR, для записи нужно 1 болванка DVDR/RW)
 
 
Похожие темы
Форум Тема Автор Торрент Отв. Посл. сооб.
Зарубежное кино [DVDRip, Low-Res HDRip, и т.д.] Ложь во спасение / The Good Lie (Филипп Фалардо / Philippe Falardeau) [2014 г., драма, BDRip] VO (PashaUp) + Original (Eng) 90ytr90
4 | 0

0 | 208

3

09.02.2015 19:25


Яндекс.Метрика powered by Sphinx


В Н И М А Н И Е
Сайт не распространяет и не хранит электронные версии произведений, а лишь бесплатно и без коммерческой выгоды (не требуя взамен платы,
SMS и т.д.) предоставляет доступ к создаваемому пользователями каталогу ссылок на торрент-файлы, которые содержат только списки хеш-сумм.
Убедительная просьба с жалобами обращаться напрямую к пользователю, разместившему торрент файл.

Вверх