Loading...
Error

Стрингер / Nightcrawler (Дэн Гилрой) [2014 г., триллер, драма, криминал, WEB-DLRip] DVO [Пиратская студия]

Статистика раздачи
Размер:  2,05 GB   |    Зарегистрирован:  1 год 11 месяцев   |    Скачан:  10 раз

Полного источника не было: 6 дней

Сидов:  0  |  0 KB/s  ]   Личеров:  0  |  0 KB/s  ]

* - сиды/пиры с внешних источников

   
 
Автор Сообщение

Паукан Пол:Муж

29-Дек-2014 16:29

Стрингер / Nightcrawler


Название: Стрингер
Оригинальное название: Nightcrawler
Год выхода: 2014
Жанр: Триллер, драма, криминал
Режиссер-постановщик: Дэн Гилрой
Актеры: Джейк Джилленхол, Рене Руссо, Риз Ахмед, Билл Пэкстон, Майкл Пападжон, Марко Родригес, Джеймс Хуанг, Кент Шокнек, Пэт Харви, Шэрон Тэй

Описание: Парень из Лос-Анджелеса Лу Блум (Джейк Джилленхол) промышляет нелегальной торговлей металлом. Абсолютно неперспективное занятие, учитывая тот факт, что никто не соглашается взять его на нормальную работу, зная, что он вор.



Сравнение скриншотов DVDScr vs WEB-DLRip

Страна: США
Студия: Bold Films
Продолжительность: 01:57:52
Перевод: Любительский (двухголосый) закадровый [Пиратская студия]

Кодек: XviD
Качество: WEB-DLRip
Видео: XviD, 1954 Кбит/с, 720x304
Звук: Русский,английский (AC3, 2 ch, 320 Кбит/с)
Примечание: Присутствуют вшитые арабские субтитры

Семпл
File: D:Видео 2Стингер.2014.WEB-DLRip.avi

General
Complete name : D:Видео 2Стингер.2014.WEB-DLRip.avi
Format : AVI
Format/Info : Audio Video Interleave
Format profile : OpenDML
File size : 2.05 GiB
Duration : 1h 52mn
Overall bit rate : 2 613 Kbps
Writing application : VirtualDubMod 1.5.10.3 | www.virtualdub-fr.org || (build 2550/release)
Writing library : VirtualDubMod build 2550/release

Video
ID : 0
Format : MPEG-4 Visual
Format profile : Advanced Simple@L5
Format settings, BVOP : 2
Format settings, QPel : No
Format settings, GMC : No warppoints
Format settings, Matrix : Default (MPEG)
Codec ID : XVID
Codec ID/Hint : XviD
Duration : 1h 52mn
Bit rate : 1 954 Kbps
Width : 720 pixels
Height : 304 pixels
Display aspect ratio : 2.35:1
Frame rate : 25.000 fps
Color space : YUV
Chroma subsampling : 4:2:0
Bit depth : 8 bits
Scan type : Progressive
Compression mode : Lossy
Bits/(Pixel*Frame) : 0.357
Stream size : 1.54 GiB (75%)
Writing library : XviD 1.2.1 (UTC 2008-12-04)

Audio #1
ID : 1
Format : AC-3
Format/Info : Audio Coding 3
Mode extension : CM (complete main)
Format settings, Endianness : Big
Codec ID : 2000
Duration : 1h 52mn
Bit rate mode : Constant
Bit rate : 320 Kbps
Channel(s) : 2 channels
Channel positions : Front: L R
Sampling rate : 48.0 KHz
Bit depth : 16 bits
Compression mode : Lossy
Stream size : 258 MiB (12%)
Alignment : Split accross interleaves
Interleave, duration : 40 ms (1.00 video frame)
Interleave, preload duration : 500 ms

Audio #2
ID : 2
Format : AC-3
Format/Info : Audio Coding 3
Mode extension : CM (complete main)
Format settings, Endianness : Big
Codec ID : 2000
Duration : 1h 52mn
Bit rate mode : Constant
Bit rate : 320 Kbps
Channel(s) : 2 channels
Channel positions : Front: L R
Sampling rate : 48.0 KHz
Bit depth : 16 bits
Compression mode : Lossy
Stream size : 258 MiB (12%)
Alignment : Split accross interleaves
Interleave, duration : 40 ms (1.00 video frame)
Interleave, preload duration : 500 ms
pic pic pic
Для увеличения картинки щелкните мышкой по превью

Этот торрент недоступен для скачивания без регистрации, однако доступен по публичной magnet-ссылке (источники с публичных трекеров). Перед использованием ссылки прочтите, пожалуйста Пользовательское соглашение, а также как можно дольше оставайтесь на раздаче! Для того, чтобы скачать сам торрент-файл (который видит больше источников), а также для того, чтобы поблагодарить релизера, вам необходимо зарегистрироваться. Если регистрироваться лень - вы можете также попробовать скачать релиз по нашим партнерским ссылкам ниже.

[underverse.su].t47786.torrent
Трекер: Зарегистрирован   [ 29.12.2014 16:29 ]  

Статус: T временная (by Паукан at 29.12.2014 16:29)
Поблагодарили: пока никто не поблагодарил...
Тип торрента: публичный - доступные источники с открытых трекеров: 
Размер: 2,05 GB (занимает 0,47 DVDR, для записи нужно 1 болванка DVDR/RW)
 
 
Похожие темы
Форум Тема Автор Торрент Отв. Посл. сооб.
Зарубежное кино [DVDRip, Low-Res HDRip, и т.д.] Стрингер / Nightcrawler (Дэн Гилрой / Dan Gilroy) [2014 г., триллер, драма, криминал, BDRip] DVO (Пиратская студия) 90ytr90
6 | 1

0 | 324

14

05.02.2015 10:45

Зарубежное кино [DVDRip, Low-Res HDRip, и т.д.] Стрингер / Nightcrawler (Дэн Гилрой / Dan Gilroy) [2014 г., триллер, драма, криминал, BDRip-AVC] DVO (Пиратская студия) + Original (Eng) + Sub (Eng) 90ytr90
1 | 0

0 | 527

15

05.02.2015 10:52

Зарубежное кино [DVDRip, Low-Res HDRip, и т.д.] Стрингер / Nightcrawler (Дэн Гилрой / Dan Gilroy) [2014 г., триллер, драма, криминал, BDRip] AVO (Матвеев) + Original (Eng) + Sub (Rus, Eng) 90ytr90
22 | 1

0 | 314

8

08.02.2015 10:21

Зарубежное кино [DVDRip, Low-Res HDRip, и т.д.] Стрингер / Nightcrawler (Дэн Гилрой / Dan Gilroy) [2014 г., триллер, драма, криминал, HDRip] DVO 90ytr90
16 | 1

0 | 475

4

23.02.2015 17:36

T Зарубежное кино [DVDRip, Low-Res HDRip, и т.д.] Стрингер / Nightcrawler (Дэн Гилрой) [2014 г., триллер, драма, криминал, HDRip] MVO makkol
0 | 0

0 | 451

37

20.08.2015 22:44

Зарубежное кино [HDDVDRip / BDRip / WEB-DL / HDTV 1080/720р] Стрингер / Nightcrawler (Дэн Гилрой) [2014 г., триллер, драма, криминал, BDRip 720p] AVO (Матвеев) + Original (Eng) + Sub (Rus, Eng) 90ytr90
0 | 0

0 | 363

2

10.02.2015 10:52

Зарубежное кино [HDDVDRip / BDRip / WEB-DL / HDTV 1080/720р] Стрингер / Nightcrawler (Дэн Гилрой) [2014 г., триллер, драма, криминал, BDRip 720p] DVO (Студия Пиратского Дубляжа) + Sub (Eng) 90ytr90
0 | 0

0 | 323

2

10.02.2015 16:22

Зарубежное кино [HDDVDRip / BDRip / WEB-DL / HDTV 1080/720р] Стрингер / Nightcrawler (Дэн Гилрой / Dan Gilroy) [2014 г., триллер, драма, криминал, BDRip 1080p] 2xAVO (Есарев, Матвеев) + MVO (Ukr) + Original (Eng) + Sub (Rus, Eng) 90ytr90
2 | 0

0 | 456

6

23.02.2015 16:48

Зарубежное кино [HDDVDRip / BDRip / WEB-DL / HDTV 1080/720р] Стрингер / Nightcrawler (Дэн Гилрой / Dan Gilroy) [2014 г., триллер, драма, криминал, BDRip 720p] 2xAVO (Есарев, Матвеев) + DVO (Rus) + MVO (Ukr) + Original (Eng) + Sub (Rus, Eng) 90ytr90
22 | 1

0 | 587

6

23.02.2015 17:01


Яндекс.Метрика powered by Sphinx


В Н И М А Н И Е
Сайт не распространяет и не хранит электронные версии произведений, а лишь бесплатно и без коммерческой выгоды (не требуя взамен платы,
SMS и т.д.) предоставляет доступ к создаваемому пользователями каталогу ссылок на торрент-файлы, которые содержат только списки хеш-сумм.
Убедительная просьба с жалобами обращаться напрямую к пользователю, разместившему торрент файл.

Вверх