Loading...
Error

Правила охоты. Отступник (1-4 серии из 4) (Давид Зограбян) [2014 г., боевик, SatRip]

Статистика раздачи
Размер:  2,21 GB   |    Зарегистрирован:  1 год 11 месяцев   |    Скачан:  21 раз

Полного источника не было: 4 месяца

Сидов:  0  |  0 KB/s  ]   Личеров:  0  |  0 KB/s  ]

* - сиды/пиры с внешних источников

   
 
Автор Сообщение

nemos Пол:Муж

29-Дек-2014 09:03

Правила охоты. Отступник


Год выпуска: 2014
Жанр: боевик
Страна: Россия
Режиссер: Давид Зограбян
В ролях: Юрий Кормушин, Александр Катин, Сергей Апрельский, Евгений Никитин, Петар Зекавица, Лилия Мэй, Татьяна Лянник
Сюжет фильма:
Бывший советский ученый-перебежчик решает вернуться на Родину и в обмен на прощение предлагает передать правительству материалы секретной программы «Орбита 12». Ученый также располагает данными, которые позволят выйти на предателя в российских спецслужбах. Однако во время контакта с представителем ученого в Стамбуле погибают сразу три члена спецгруппы генерала Сергачева, а сам он попадает под подозрение. Тем временем в Россию прибывает агент-убийца из Европы, который методично устраняет всех, кто когда-либо имел отношение к секретной программе. Чтобы доказать свою невиновность, Сергачев формирует спецгруппу и отправляется в Европу на поиски ученого, но операция проваливается, ученого убивают, а сам генерал попадает в руки иностранной разведки. Один из членов спецгруппы, Влад Артемьев решает в одиночку распутать паутину предательств, найти крота и вернуть генералу доброе имя. Но это не так-то просто сделать, потому что за Владом охотятся все: иностранная разведка, киллер в России, предатель в российских спецслужбах и сами спецслужбы, которые считают своего тайного агента предателем...


Качество видео: SatRip

Продолжительность: 00:36:24 (Серия)
Формат: AVI
Видео: XviD, 720x304 , 2079 kbps
Аудио: русский, AC3 2.0, 192 kbps

Код:

E:\Фильмы-1\Otstupnik.2014.SATRip.Files-x.GeneralFilm\04.Otstupnik.2014.SATRip.Files-x.GeneralFilm.avi
   General
      Complete name : E:\Фильмы-1\Otstupnik.2014.SATRip.Files-x.GeneralFilm\04.Otstupnik.2014.SATRip.Files-x.GeneralFilm.avi
      Format : AVI
      Format/Info : Audio Video Interleave
      File size : 594 MiB
      Duration : 36mn 24s
      Overall bit rate : 2 281 Kbps
      Writing application : VirtualDubMod 1.5.10.3 | www.virtualdub-fr.org || (build 2550/release)
      Writing library : VirtualDubMod build 2550/release
   Video #0
      ID : 0
      Format : MPEG-4 Visual
      Format profile : Advanced Simple@L5
      Format settings, BVOP : 1
      Format settings, QPel : No
      Format settings, GMC : No warppoints
      Format settings, Matrix : Custom
      Codec ID : XVID
      Codec ID/Hint : XviD
      Duration : 36mn 24s
      Bit rate : 2 079 Kbps
      Width : 720 pixels
      Height : 304 pixels
      Display aspect ratio : 2.35:1
      Frame rate : 25.000 fps
      Color space : YUV
      Chroma subsampling : 4:2:0
      Bit depth : 8 bits
      Scan type : Progressive
      Compression mode : Lossy
      Bits/(Pixel*Frame) : 0.380
      Stream size : 541 MiB (91%)
      Writing library : XviD 73
   Audio #1
      ID : 1
      Format : AC-3
      Format/Info : Audio Coding 3
      Mode extension : CM (complete main)
      Format settings, Endianness : Big
      Codec ID : 2000
      Duration : 36mn 24s
      Bit rate mode : Constant
      Bit rate : 192 Kbps
      Channel(s) : 2 channels
      Channel positions : Front: L R
      Sampling rate : 48.0 KHz
      Bit depth : 16 bits
      Compression mode : Lossy
      Stream size : 50.0 MiB (8%)
      Alignment : Split accross interleaves
      Interleave, duration : 40 ms (1.00 video frame)
      Interleave, preload duration : 500 ms
picpicpicpicpicpicpicpicpicpic
Для увеличения картинки щелкните мышкой по превью

Этот торрент недоступен для скачивания без регистрации, однако доступен по публичной magnet-ссылке (источники с публичных трекеров). Перед использованием ссылки прочтите, пожалуйста Пользовательское соглашение, а также как можно дольше оставайтесь на раздаче! Для того, чтобы скачать сам торрент-файл (который видит больше источников), а также для того, чтобы поблагодарить релизера, вам необходимо зарегистрироваться. Если регистрироваться лень - вы можете также попробовать скачать релиз по нашим партнерским ссылкам ниже.

[underverse.su].t47775.torrent
Трекер: Зарегистрирован   [ 29.12.2014 09:03 ]  

Статус: проверено (by nemos at 29.12.2014 09:04)
Поблагодарили: пока никто не поблагодарил...
Тип торрента: публичный - доступные источники с открытых трекеров: 
Размер: 2,21 GB (занимает 0,5 DVDR, для записи нужно 1 болванка DVDR/RW)
 
 
Похожие темы
Форум Тема Автор Торрент Отв. Посл. сооб.
xUSSR сериалы Правила охоты. Штурм / Серии: 1-4 из 4 (Грачья Кешишян) [2015 г., Боевик, SatRip] nemos
0 | 0

0 | 2993

52

28.02.2015 22:18


Яндекс.Метрика powered by Sphinx


В Н И М А Н И Е
Сайт не распространяет и не хранит электронные версии произведений, а лишь бесплатно и без коммерческой выгоды (не требуя взамен платы,
SMS и т.д.) предоставляет доступ к создаваемому пользователями каталогу ссылок на торрент-файлы, которые содержат только списки хеш-сумм.
Убедительная просьба с жалобами обращаться напрямую к пользователю, разместившему торрент файл.

Вверх