Loading...
Error

Апостол.Отцовский инстинкт (Станислав Титаренко, Алексей Волов) [2014 г., Боевик, Криминал, WEB-DLRip]

Статистика раздачи
Размер:  1,36 GB   |    Зарегистрирован:  1 год 11 месяцев   |    Скачан:  75 раз

Полного источника не было: 15 дней

Сидов:  0  |  0 KB/s  ]   Личеров:  0  |  0 KB/s  ]

* - сиды/пиры с внешних источников

   
 
Автор Сообщение

nemos Пол:Муж

25-Дек-2014 23:06

Апостол.Отцовский инстинкт


Год выпуска: 2014
Жанр: Боевик, Криминал
Страна: Россия
Режиссер: Станислав Титаренко, Алексей Волов
В ролях: Анатолий Узденский, Ольга Иванова, Константин Стрельников, Сергей Колесников, Сергей Комаров, Игорь Волков
Сюжет фильма:
Фильм о Петре Набокове по прозвищу "Апостол", одном из ведущих героев телесериала "Ментовские войны". Кто-то объявил охоту на Апостола, покушение следует за покушением. Набоков не знает, кто за этим стоит, но должен разобраться, ведь на кону не только его жизнь, но и судьба недавно найденной им дочери Милы. Апостол считает, что его решил убрать Пантелей, с которым у них сложился конфликт из-за бизнес-интересов. А может быть это месть давнего врага Апостола — Градуса, который, отсидев 20 лет, вышел на свободу. Апостол не может рисковать жизнью дочери и решает отправить её за границу. И, едва Мила уезжает, в дом Апостола врываются киллеры. Лишь хорошая реакция и большой жизненный опыт позволяют Набокову остаться в живых и обезвредить преступников. Он решается на неожиданный шаг, о котором не рассказывает никому, даже дочери и начальнику своей охраны Реутову. Апостол с помощью своих старых друзей начинает собственное расследование. Правда, которую ему предстоит открыть, окажется намного страшнее, чем он мог себе представить…
Качество видео: WEB-DLRip

Продолжительность: 01:32:02
Формат: AVI
Видео: XviD, 720x400, 1984 kbps
Аудио: русский, MP3 2.0, 128 kbps

Код:

D:\ФИЛЬМЫ-1\ApostolOtcovskij.instinkt.WEBRip..avi
   General
      Complete name : D:\ФИЛЬМЫ-1\ApostolOtcovskij.instinkt.WEBRip..avi
      Format : AVI
      Format/Info : Audio Video Interleave
      File size : 1.36 GiB
      Duration : 1h 32mn
      Overall bit rate : 2 122 Kbps
      Writing library : VirtualDub build 35491/release
   Video #0
      ID : 0
      Format : MPEG-4 Visual
      Format profile : Advanced Simple@L5
      Format settings, BVOP : 2
      Format settings, QPel : No
      Format settings, GMC : No warppoints
      Format settings, Matrix : Default (H.263)
      Muxing mode : Packed bitstream
      Codec ID : XVID
      Codec ID/Hint : XviD
      Duration : 1h 32mn
      Bit rate : 1 984 Kbps
      Width : 720 pixels
      Height : 400 pixels
      Display aspect ratio : 16:9
      Frame rate : 25.000 fps
      Color space : YUV
      Chroma subsampling : 4:2:0
      Bit depth : 8 bits
      Scan type : Progressive
      Compression mode : Lossy
      Bits/(Pixel*Frame) : 0.276
      Stream size : 1.28 GiB (94%)
      Writing library : XviD 73
   Audio #1
      ID : 1
      Format : MPEG Audio
      Format version : Version 1
      Format profile : Layer 3
      Mode : Joint stereo
      Mode extension : MS Stereo
      Codec ID : 55
      Codec ID/Hint : MP3
      Duration : 1h 32mn
      Bit rate mode : Constant
      Bit rate : 128 Kbps
      Channel(s) : 2 channels
      Sampling rate : 48.0 KHz
      Compression mode : Lossy
      Delay relative to video : 100ms
      Stream size : 84.3 MiB (6%)
      Alignment : Split accross interleaves
      Interleave, duration : 40 ms (1.00 video frame)
      Interleave, preload duration : 500 ms
picpicpicpicpicpicpicpicpicpicpicpicpicpicpic
Для увеличения картинки щелкните мышкой по превью

Этот торрент недоступен для скачивания без регистрации, однако доступен по публичной magnet-ссылке (источники с публичных трекеров). Перед использованием ссылки прочтите, пожалуйста Пользовательское соглашение, а также как можно дольше оставайтесь на раздаче! Для того, чтобы скачать сам торрент-файл (который видит больше источников), а также для того, чтобы поблагодарить релизера, вам необходимо зарегистрироваться. Если регистрироваться лень - вы можете также попробовать скачать релиз по нашим партнерским ссылкам ниже.

[underverse.su].t47703.torrent
Трекер: Зарегистрирован   [ 25.12.2014 23:06 ]  

Статус: T временная (by nemos at 25.12.2014 23:09)
Поблагодарили: 3 человека
Тип торрента: публичный - доступные источники с открытых трекеров: 
Размер: 1,36 GB (занимает 0,31 DVDR, для записи нужно 1 болванка DVDR/RW)
 
 

Яндекс.Метрика powered by Sphinx


В Н И М А Н И Е
Сайт не распространяет и не хранит электронные версии произведений, а лишь бесплатно и без коммерческой выгоды (не требуя взамен платы,
SMS и т.д.) предоставляет доступ к создаваемому пользователями каталогу ссылок на торрент-файлы, которые содержат только списки хеш-сумм.
Убедительная просьба с жалобами обращаться напрямую к пользователю, разместившему торрент файл.

Вверх