Loading...
Error

Умельцы (1-16 серии из 16) (Всеволод Аравин) [2014 г., криминал, SatRip]

Статистика раздачи
Размер:  8,52 GB   |    Зарегистрирован:  1 год 11 месяцев   |    Скачан:  24 раза
Сидов:  1  |  0,2 KB/s  ]   Личеров:  0  |  0 KB/s  ]

* - сиды/пиры с внешних источников

   
 
Автор Сообщение

nemos Пол:Муж

25-Дек-2014 22:45





Год выпуска: 2014
Жанр: криминал
Страна: Россия
Режиссер: Всеволод Аравин

Качество видео: SatRip

Продолжительность: 00:49:55 (Серия)
Формат: AVI
Видео: XviD, 720x400 , 1 400 kbps
Аудио: русский, MP3 2.0, 192 kbps
В ролях: Сергей Маковецкий (Леонид Николаевич Купцов), Дмитрий Марьянов (Брюнет), Евгений Миллер (Дмитрий Борисович Петрухин), Алексей Паничев (Грибков), Анастасия Панина (Аллочка), Владимир Наджаров (Игорь Погрябняк), Ярослав Жалнин (Саша Матвеев), Павел Афонькин, Макс Бирюков (Глеб Асеев), Александр Сергеев (Малянов), Марина Орлова, Юрий Маслак (Пятов)


Два классных сыщика: следователь, майор Леонид Купцов и оперуполномоченный, капитан Дмитрий Петрухин вдруг оказались не у дел - обоих за излишнее рвение выгнали из уголовного розыска. Неожиданно работу им предлагает «Брюнет» - их бывший «клиент» с богатым бандитским прошлым...

Код:

D:\ФИЛЬМЫ-1\Умельцы (2014)\Умельцы.(01.seriya).2014.XviD.SATRip.by.simka.avi
   General
      Complete name : D:\ФИЛЬМЫ-1\Умельцы (2014)\Умельцы.(01.seriya).2014.XviD.SATRip.by.simka.avi
      Format : AVI
      Format/Info : Audio Video Interleave
      File size : 572 MiB
      Duration : 49mn 55s
      Overall bit rate : 1 601 Kbps
      Writing application : VirtualDubModRus 1.5.10.2 (build 2542/release)
      Writing library : VirtualDubMod build 2542/release
   Video #0
      ID : 0
      Format : MPEG-4 Visual
      Format profile : Advanced Simple@L5
      Format settings, BVOP : 1
      Format settings, QPel : No
      Format settings, GMC : No warppoints
      Format settings, Matrix : Default (MPEG)
      Codec ID : XVID
      Codec ID/Hint : XviD
      Duration : 49mn 55s
      Bit rate : 1 400 Kbps
      Width : 720 pixels
      Height : 400 pixels
      Display aspect ratio : 16:9
      Frame rate : 25.000 fps
      Color space : YUV
      Chroma subsampling : 4:2:0
      Bit depth : 8 bits
      Scan type : Progressive
      Compression mode : Lossy
      Bits/(Pixel*Frame) : 0.194
      Stream size : 500 MiB (87%)
      Writing library : XviD 1.2.1 (UTC 2008-12-04)
   Audio #1
      ID : 1
      Format : MPEG Audio
      Format version : Version 1
      Format profile : Layer 3
      Mode : Joint stereo
      Mode extension : MS Stereo
      Codec ID : 55
      Codec ID/Hint : MP3
      Duration : 49mn 55s
      Bit rate mode : Constant
      Bit rate : 192 Kbps
      Channel(s) : 2 channels
      Sampling rate : 48.0 KHz
      Compression mode : Lossy
      Stream size : 68.6 MiB (12%)
      Alignment : Aligned on interleaves
      Interleave, duration : 40 ms (1.00 video frame)
      Interleave, preload duration : 504 ms
      Writing library : LAME3.99r
      Encoding settings : -m j -V 4 -q 2 -lowpass 18.6 -b 192
picpicpicpic
Для увеличения картинки щелкните мышкой по превью

Этот торрент недоступен для скачивания без регистрации, однако доступен по публичной magnet-ссылке (источники с публичных трекеров). Перед использованием ссылки прочтите, пожалуйста Пользовательское соглашение, а также как можно дольше оставайтесь на раздаче! Для того, чтобы скачать сам торрент-файл (который видит больше источников), а также для того, чтобы поблагодарить релизера, вам необходимо зарегистрироваться. Если регистрироваться лень - вы можете также попробовать скачать релиз по нашим партнерским ссылкам ниже.

[underverse.su].t47985.torrent
Трекер: Зарегистрирован   [ 03.01.2015 22:42 ]  

Статус: проверено (by nemos at 03.01.2015 22:42)
Поблагодарили: 1 человек
Тип торрента: публичный - доступные источники с открытых трекеров: 
Размер: 8,52 GB (занимает 1,95 DVDR, для записи нужно 2 болванки DVDR/RW)
 
 


Последний раз редактировалось: nemos (03.01.2015 22:42), всего редактировалось 2 раз(а)

nemos Пол:Муж

26-Дек-2014 18:35

Раздача обновлена! 16 серий.

Яндекс.Метрика powered by Sphinx


В Н И М А Н И Е
Сайт не распространяет и не хранит электронные версии произведений, а лишь бесплатно и без коммерческой выгоды (не требуя взамен платы,
SMS и т.д.) предоставляет доступ к создаваемому пользователями каталогу ссылок на торрент-файлы, которые содержат только списки хеш-сумм.
Убедительная просьба с жалобами обращаться напрямую к пользователю, разместившему торрент файл.

Вверх