Loading...
Error

На грани / Lev sterkt (Кристиан Е. Кристиансен) [2014 г., Драма, BDRip-AVC] MVO (RUS)

Статистика раздачи
Размер:  1,45 GB   |    Зарегистрирован:  1 год 11 месяцев   |    Скачан:  15 раз

Полного источника не было: 9 месяцев

Сидов:  0  |  0 KB/s  ]   Личеров:  0  |  0 KB/s  ]

* - сиды/пиры с внешних источников

   
 
Автор Сообщение

Ведьмочка Пол:Жен

25-Дек-2014 22:37

На грани / Lev stærkt
«Страсть. Скорость. Дружба. Драйв!»


Страна: Дания , Швеция
Год выпуска: 2014
Жанр: Драма
Продолжительность: 01:25:47
Режиссёр: Кристиан Е. Кристиансен
В ролях: Сирон Бьёрн Мелвиль, Якоб Офтебро, Даника Куркик, Каспер Йеклев Фомсгаард, Йоаким Ингверсен, Джессика Бахрами Сёренсен
Сюжет фильма:
Ник и Мартин, лучшие друзья с детства, принимают участие в незаконных автогонках по городским улицам. Адреналин зашкаливает! Но одна ночная гонка заканчивается трагически — на огромной скорости один из друзей сбивает молодую велосипедистку.

Ситуация выходит из-под контроля… Вскоре им обоим придется столкнуться с последствиями собственной лжи. Каждое последующее действие ведет за собой череду все больших ошибок…


Озвучивание:
  • Профессиональный, Многоголосный, Русский


Качество видео: BDRip-AVC
Формат: MKV

Видео: AVC, 1024x436 (2.35:1), 24.000 fps, ~2044 Кбит/сек
Аудио: AC-3, 384 Кбит/сек, 6 Каналов, 48.0 КГц

Rip by:



Общее
Уникальный идентификатор : 249315490570971393951870919026882502291 (0xBB906AB93D2EB6909261898DEC91DE93)
Полное имя : \Na.grani.2014.x264.BDRip.(AVC).ExKinoRay.mkv
Формат : Matroska
Версия формата : Version 2
Размер файла : 1,45 Гбайт
Продолжительность : 1 ч. 25 м.
Общий поток : 2426 Кбит/сек
Название фильма : Na.grani.2014.x264.BDRip.(AVC).ExKinoRay
Дата кодирования : UTC 2014-12-24 15:45:25
Программа кодирования : mkvmerge v4.0.0 ('The Stars were mine') сборка от Jun 6 2010 16:18:42
Библиотека кодирования : libebml v1.0.0 + libmatroska v1.0.0

Видео
Идентификатор : 1
Формат : AVC
Формат/Информация : Advanced Video Codec
Профиль формата : High@L4.1
Параметр CABAC формата : Да
Параметр ReFrames формата : 4 кадра
Идентификатор кодека : V_MPEG4/ISO/AVC
Продолжительность : 1 ч. 25 м.
Битрейт : 2044 Кбит/сек
Ширина : 1024 пикселя
Высота : 436 пикселей
Соотношение сторон : 2,35:1
Режим частоты кадров : Постоянный
Частота кадров : 24,000 кадра/сек
Цветовое пространство : YUV
Субдискретизация насыщенности : 4:2:0
Битовая глубина : 8 бит
Тип развёртки : Прогрессивная
Бит/(Пиксели*Кадры) : 0.191
Размер потока : 1,19 Гбайт (82%)
Заголовок : Rip by Enigma-Vladislav71
Библиотека кодирования : x264 core 142 r2431 ac76440
Настройки программы : cabac=1 / ref=3 / deblock=1:0:0 / analyse=0x3:0x133 / me=umh / subme=6 / psy=1 / psy_rd=1.00:0.00 / mixed_ref=1 / me_range=16 / chroma_me=1 / trellis=1 / 8x8dct=1 / cqm=0 / deadzone=21,11 / fast_pskip=0 / chroma_qp_offset=-2 / threads=3 / lookahead_threads=1 / sliced_threads=0 / nr=0 / decimate=0 / interlaced=0 / bluray_compat=0 / constrained_intra=0 / bframes=3 / b_pyramid=2 / b_adapt=2 / b_bias=0 / direct=3 / weightb=1 / open_gop=0 / weightp=2 / keyint=240 / keyint_min=23 / scenecut=40 / intra_refresh=0 / rc=2pass / mbtree=0 / bitrate=2044 / ratetol=1.0 / qcomp=0.60 / qpmin=10 / qpmax=51 / qpstep=4 / cplxblur=20.0 / qblur=0.5 / ip_ratio=1.40 / pb_ratio=1.30 / aq=1:1.00
Default : Нет
Forced : Нет

Аудио
Идентификатор : 2
Формат : AC-3
Формат/Информация : Audio Coding 3
Расширение режима : CM (complete main)
Параметр Endianness формата : Big
Идентификатор кодека : A_AC3
Продолжительность : 1 ч. 25 м.
Вид битрейта : Постоянный
Битрейт : 384 Кбит/сек
Каналы : 6 каналов
Расположение каналов : Front: L C R, Side: L R, LFE
Частота : 48,0 КГц
Битовая глубина : 16 бит
Метод сжатия : С потерями
Размер потока : 236 Мбайт (16%)
Язык : Russian
Default : Нет
Forced : Нет


picpicpicpicpic
Для увеличения картинки щелкните мышкой по превью



Этот торрент недоступен для скачивания без регистрации, однако доступен по публичной magnet-ссылке (источники с публичных трекеров). Перед использованием ссылки прочтите, пожалуйста Пользовательское соглашение, а также как можно дольше оставайтесь на раздаче! Для того, чтобы скачать сам торрент-файл (который видит больше источников), а также для того, чтобы поблагодарить релизера, вам необходимо зарегистрироваться. Если регистрироваться лень - вы можете также попробовать скачать релиз по нашим партнерским ссылкам ниже.

[underverse.su].t47701.torrent
Трекер: Зарегистрирован   [ 25.12.2014 22:37 ]  

Статус: проверено (by Ведьмочка at 25.12.2014 22:38)
Поблагодарили: 1 человек
Тип торрента: публичный - доступные источники с открытых трекеров: 
Размер: 1,45 GB (занимает 1/3 DVDR, для записи нужно 1 болванка DVDR/RW)
 
 
Похожие темы
Форум Тема Автор Торрент Отв. Посл. сооб.
Зарубежное кино [DVDRip, Low-Res HDRip, и т.д.] На грани / Man on a Ledge (Асгер Лет) [2012 г., триллер, криминал, DVDRip] [Лицензия] 90ytr90
2 | 3

7 | 1443

121

06.08.2012 10:16

Зарубежное кино [DVDRip, Low-Res HDRip, и т.д.] На грани / Man on a Ledge (Асгер Лет / Asger Leth) [2012 г., боевик, триллер, криминал, HDRip] AVO (А.Гаврилов) 90ytr90
7 | 0

0 | 890

9

17.03.2013 14:42

T Зарубежное кино [DVDRip, Low-Res HDRip, и т.д.] На грани / Lev staerkt (Кристиан Е. Кристиансен / Christian E. Christiansen) [2014 г., драма, WEB-DLRip] MVO Паукан
4 | 0

0 | 566

11

15.09.2014 09:28

Зарубежное кино HQ На грани / Man on a Ledge (Асгер Лет) [2012 г., триллер, криминал, HDRip] (Rus, Eng) HQ Underverse HQ Underverse
0 | 0

1 | 778

35

14.05.2012 02:18

Зарубежные сериалы На грани / The Brink / Сезон 1 (1-10 серии из 10) (Майкл Леманн, Джеймс М. Муро, Джон Полл) [2015 г., комедия, HDTVRip] MVO + Original older
7 | 1

3 | 658

10

27.08.2015 08:00

Зарубежное кино [HDDVDRip / BDRip / WEB-DL / HDTV 1080/720р] На грани / Man on a Ledge (Асгер Лет) [2012 г., Боевик, Триллер, Криминал, BDRip 720p] Dub (Rus) + Subs (Rus, Eng) Ведьмочка
3 | 0

0 | 751

12

21.07.2014 13:55


Яндекс.Метрика powered by Sphinx


В Н И М А Н И Е
Сайт не распространяет и не хранит электронные версии произведений, а лишь бесплатно и без коммерческой выгоды (не требуя взамен платы,
SMS и т.д.) предоставляет доступ к создаваемому пользователями каталогу ссылок на торрент-файлы, которые содержат только списки хеш-сумм.
Убедительная просьба с жалобами обращаться напрямую к пользователю, разместившему торрент файл.

Вверх