Loading...
Error

Общага / Alpha House (Джейкоб Куни) [2014 г., Комедия, BDRip] VO (RUS, Andi)

Статистика раздачи
Размер:  1,39 GB   |    Зарегистрирован:  1 год 11 месяцев   |    Скачан:  40 раз

Полного источника не было: 56 минут

Сидов:  0  |  0 KB/s  ]   Личеров:  0  |  0 KB/s  ]

* - сиды/пиры с внешних источников

   
 
Автор Сообщение

Ведьмочка Пол:Жен

25-Дек-2014 20:34

Общага / Alpha House
«The wildest frat house is going... Co-Ed!»


Страна: США
Год выпуска: 2014
Жанр: Комедия
Продолжительность: 01:28:33
Режиссёр: Джейкоб Куни
В ролях: Джулиен Бенсимон, Хезер Пейдж Кон, Крис О'Брайен, Джин Луиз О’Салливан, Д.С. Дуглас, Сэм Отаки, Анна Белетски, Эли Билднер, Майкл Льюис Фостер, Одри Эллис Фокс
Сюжет фильма:
Когда руководство университета решает избавиться от одного из самых диких и шумных студенческих братств, оно принимает радикальное решение: открыть в братство доступ для студенток-отличниц, чтобы они своим примером перевоспитывали двоечников. Молодежная дурашлепская комедия, где двигатель сюжета - толпа девушек в бикини.

Озвучивание:
  • Любительский, Одноголосный, Русский [Andi]


Качество видео: BDRip
Формат: AVI

Видео: XviD, 720x400 (16:9), 23.976 fps, ~1985 Кбит/сек
Аудио: AC-3, 256 Кбит/сек, 6 Каналов, 48.0 КГц



Общее
Полное имя : \Alpha.House.2014.L1.BDRip.avi
Формат : AVI
Формат/Информация : Audio Video Interleave
Размер файла : 1,39 Гбайт
Продолжительность : 1 ч. 28 м.
Общий поток : 2251 Кбит/сек
Программа кодирования : VirtualDubMod 1.5.10.3 | www.virtualdub-fr.org || (build 2550/release)
Библиотека кодирования : VirtualDubMod build 2550/release

Видео
Идентификатор : 0
Формат : MPEG-4 Visual
Профиль формата : Advanced Simple@L5
Параметр BVOP формата : 1
Параметр QPel формата : Нет
Параметр GMC формата : Без точки перехода
Параметр матрицы формата : Выборочная
Идентификатор кодека : XVID
Идентификатор кодека/Подсказка : XviD
Продолжительность : 1 ч. 28 м.
Битрейт : 1985 Кбит/сек
Ширина : 720 пикселей
Высота : 400 пикселей
Соотношение сторон : 16:9
Частота кадров : 23,976 кадра/сек
Цветовое пространство : YUV
Субдискретизация насыщенности : 4:2:0
Битовая глубина : 8 бит
Тип развёртки : Прогрессивная
Метод сжатия : С потерями
Бит/(Пиксели*Кадры) : 0.288
Размер потока : 1,23 Гбайт (88%)
Библиотека кодирования : XviD 73

Аудио
Идентификатор : 1
Формат : AC-3
Формат/Информация : Audio Coding 3
Расширение режима : CM (complete main)
Параметр Endianness формата : Big
Идентификатор кодека : 2000
Продолжительность : 1 ч. 28 м.
Вид битрейта : Постоянный
Битрейт : 256 Кбит/сек
Каналы : 6 каналов
Расположение каналов : Front: L C R, Side: L R, LFE
Частота : 48,0 КГц
Битовая глубина : 16 бит
Метод сжатия : С потерями
Размер потока : 162 Мбайт (11%)
Выравнивание : Разделение по промежуткам
Продолжительность промежутка : 42 мс. (1,00 видеокадр)
Время предзагрузки промежутка : 500 мс.


picpicpicpicpic
Для увеличения картинки щелкните мышкой по превью



Этот торрент недоступен для скачивания без регистрации, однако доступен по публичной magnet-ссылке (источники с публичных трекеров). Перед использованием ссылки прочтите, пожалуйста Пользовательское соглашение, а также как можно дольше оставайтесь на раздаче! Для того, чтобы скачать сам торрент-файл (который видит больше источников), а также для того, чтобы поблагодарить релизера, вам необходимо зарегистрироваться. Если регистрироваться лень - вы можете также попробовать скачать релиз по нашим партнерским ссылкам ниже.

[underverse.su].t47698.torrent
Трекер: Зарегистрирован   [ 25.12.2014 20:34 ]  

Статус: проверено (by Ведьмочка at 25.12.2014 20:34)
Поблагодарили: 2 человека
Тип торрента: публичный - доступные источники с открытых трекеров: 
Размер: 1,39 GB (занимает 0,32 DVDR, для записи нужно 1 болванка DVDR/RW)
 
 
Похожие темы
Форум Тема Автор Торрент Отв. Посл. сооб.
Зарубежное кино [HDDVDRip / BDRip / WEB-DL / HDTV 1080/720р] Общага / Alpha House (Джейкоб Куни) [2014 г., Комедия, BDRip 720p] VO (RUS, Andi) + Original (ENG) Ведьмочка
70 | 0

0 | 1103

47

25.12.2014 23:13


Яндекс.Метрика powered by Sphinx


В Н И М А Н И Е
Сайт не распространяет и не хранит электронные версии произведений, а лишь бесплатно и без коммерческой выгоды (не требуя взамен платы,
SMS и т.д.) предоставляет доступ к создаваемому пользователями каталогу ссылок на торрент-файлы, которые содержат только списки хеш-сумм.
Убедительная просьба с жалобами обращаться напрямую к пользователю, разместившему торрент файл.

Вверх