Loading...
Error

Исчезнувшая / Gone Girl (Дэвид Финчер ) [2014 г., триллер, драма, детектив, BDRip] Dub + Original + Sub (Rus,Eng) HQ Underverse

Статистика раздачи
Размер:  2,17 GB   |    Зарегистрирован:  1 год 11 месяцев   |    Скачан:  52 раза
Сидов:  1  |  0 KB/s  ]   Личеров:  0  |  0 KB/s  ]

* - сиды/пиры с внешних источников

   
 
Автор Сообщение

HQ Underverse 

25-Дек-2014 13:09

Исчезнувшая / Gone Girl


Год выпуска: 2014
Жанр: триллер, драма, детектив
Страна: США
Режиссер: Дэвид Финчер
В ролях: Бен Аффлек, Розамунд Пайк, Нил Патрик Харрис, Мисси Пайл, Скут МакНэйри, Кэрри Кун, Тайлер Перри, Ли Норрис, Бойд Холбрук, Патрик Фьюджит
Сюжет фильма:
Все было готово для празднования пятилетнего юбилея супружеской жизни, когда вдруг необъяснимо пропал один из виновников торжества. Остались следы борьбы в доме, кровь, которую явно пытались стереть, — и цепочка «ключей» в игре под названием «охота за сокровищами» красивая, умная и невероятно изобретательная жена ежегодно устраивала ее для своего обожаемого мужа. И похоже, что эти «ключи» — размещенные ею тут и там странные записки и не менее странные безделушки — дают единственный шанс пролить свет на судьбу исчезнувшей. Вот только не придется ли «охотнику» в процессе поиска раскрыть миру и пару-тройку собственных малосимпатичных тайн?

  • Мировая премьера: 26 сентября 2014
  • Российская премьера: 2 октября 2014, «Двадцатый Век Фокс СНГ»

/
Качество видео: BDRip

Продолжительность: 02:29:01
Формат: avi
Видео: XviD, 720x304, 1624 kbps
Аудио #1: русский, дублированный [лицензия], AC3 5.1, 448 kbps
Аудио #2: английский, оригинал, AC3 5.1, 448 kbps (отдельным файлом: здесь)
Субтитры #1: внешние, SRT, английский
Субтитры #2: внешние, SRT, русский

Код:

General
Complete name                    : Y:\Исчезнувшая\Gone.Girl.2014.BDRip.XviD.AC3.Rus.D.HQ.Underverse.avi
Format                           : AVI
Format/Info                      : Audio Video Interleave
Format profile                   : OpenDML
File size                        : 2.17 GiB
Duration                         : 2h 29mn
Overall bit rate                 : 2 084 Kbps
Writing application              : VirtualDubMod 1.5.10.3 | www.virtualdub-fr.org || (build 2550/release)
Writing library                  : VirtualDubMod build 2550/release

Video
ID                               : 0
Format                           : MPEG-4 Visual
Format profile                   : Streaming Video@L1
Format settings, BVOP            : Yes
Format settings, QPel            : No
Format settings, GMC             : No warppoints
Format settings, Matrix          : Custom
Codec ID                         : XVID
Codec ID/Hint                    : XviD
Duration                         : 2h 29mn
Bit rate                         : 1 624 Kbps
Width                            : 720 pixels
Height                           : 304 pixels
Display aspect ratio             : 2.35
Frame rate                       : 23.976 fps
Resolution                       : 24 bits
Colorimetry                      : 4:2:0
Scan type                        : Progressive
Bits/(Pixel*Frame)               : 0.310
Stream size                      : 1.69 GiB (78%)
Writing library                  : XviD 64

Audio
ID                               : 1
Format                           : AC-3
Format/Info                      : Audio Coding 3
Codec ID                         : 2000
Duration                         : 2h 29mn
Bit rate mode                    : Constant
Bit rate                         : 448 Kbps
Channel(s)                       : 6 channels
Channel positions                : Front: L C R, Surround: L R, LFE
Sampling rate                    : 48.0 KHz
Stream size                      : 478 MiB (21%)
Alignment                        : Split accross interleaves
Interleave, duration             : 42 ms (1.00 video frame)
Interleave, preload duration     : 500 ms

General
Complete name                    : Y:\Исчезнувшая\Gone.Girl.2014.BDRip.XviD.AC3.Rus.D.HQ.Underverse.ENG.ac3
Format                           : AC-3
Format/Info                      : Audio Coding 3
File size                        : 478 MiB
Duration                         : 2h 29mn
Overall bit rate                 : 448 Kbps

Audio
Format                           : AC-3
Format/Info                      : Audio Coding 3
Duration                         : 2h 29mn
Bit rate mode                    : Constant
Bit rate                         : 448 Kbps
Channel(s)                       : 6 channels
Channel positions                : Front: L C R, Surround: L R, LFE
Sampling rate                    : 48.0 KHz
Stream size                      : 478 MiB (100%)

Релиз группы:

picpicpic
Для увеличения картинки щелкните мышкой по превью

Этот торрент недоступен для скачивания без регистрации, однако доступен по публичной magnet-ссылке (источники с публичных трекеров). Перед использованием ссылки прочтите, пожалуйста Пользовательское соглашение, а также как можно дольше оставайтесь на раздаче! Для того, чтобы скачать сам торрент-файл (который видит больше источников), а также для того, чтобы поблагодарить релизера, вам необходимо зарегистрироваться. Если регистрироваться лень - вы можете также попробовать скачать релиз по нашим партнерским ссылкам ниже.

[underverse.su].t47693.torrent
Трекер: Зарегистрирован   [ 25.12.2014 13:09 ]  

Статус: проверено (by HQ Underverse at 25.12.2014 13:09)
Поблагодарили: пока никто не поблагодарил...
Тип торрента: публичный - доступные источники с открытых трекеров: 
Размер: 2,17 GB (занимает 1/2 DVDR, для записи нужно 1 болванка DVDR/RW)
 
 
Похожие темы
Форум Тема Автор Торрент Отв. Посл. сооб.
Зарубежное кино [DVDRip, Low-Res HDRip, и т.д.] Исчезнувшая / Gone Girl (Дэвид Финчер / David Fincher) [2014 г., триллер, драма, детектив, WEB-DLRip] AVO (Матвеев) 90ytr90
1 | 0

0 | 3188

14

14.12.2014 16:38

Зарубежное кино [DVDRip, Low-Res HDRip, и т.д.] Исчезнувшая / Gone Girl (Дэвид Финчер) [2014 г., драма, триллер, HDRip] Dub [лицензия] Паукан
16 | 0

0 | 1112

84

22.12.2014 14:08

Зарубежное кино [DVDRip, Low-Res HDRip, и т.д.] Исчезнувшая / Gone Girl (Дэвид Финчер / David Fincher) [2014 г., триллер, драма, детектив, ВDRip] Dub + Subs 90ytr90
2 | 0

0 | 734

9

23.12.2014 17:52

Зарубежное кино [DVDRip, Low-Res HDRip, и т.д.] Исчезнувшая / Gone Girl (Дэвид Финчер / David Fincher) [2014 г., триллер, драма, детектив, HDRip] Dub (Rus) + Dub (Ukr) + Original (Eng) + Subs 90ytr90
0 | 0

0 | 790

6

23.12.2014 18:02

Зарубежное кино [DVDRip, Low-Res HDRip, и т.д.] Исчезнувшая / Gone Girl (Дэвид Финчер / David Fincher) [2014 г., триллер, драма, детектив, BDRip-AVC] Dub + Original (Eng) + Subs 90ytr90
38 | 0

0 | 751

11

23.12.2014 18:17

Зарубежное кино [DVDRip, Low-Res HDRip, и т.д.] Исчезнувшая / Gone Girl (Дэвид Финчер / David Fincher) [2014 г., триллер, драма, детектив, BDRip-AVC] Dub + Subs 90ytr90
9 | 0

0 | 986

45

23.12.2014 18:33

Зарубежное кино [DVDRip, Low-Res HDRip, и т.д.] Исчезнувшая / Gone Girl (Дэвид Финчер / David Fincher) [2014 г., триллер, драма, детектив, BDRip] Dub + Original (Eng) + Subs 90ytr90
16 | 0

0 | 763

25

11.01.2015 07:07

Зарубежное кино [DVD / HDDVD / BD / Remux] Исчезнувшая / Gone Girl (Дэвид Финчер / David Fincher) [2014, США, триллер, драма, детектив, BDRemux 1080p] Dub + VO (Doctor Joker) + Sub (Rus, Ukr, Eng) + Original (Eng) uzi2009
21 | 4

0 | 646

6

26.12.2014 19:21

Зарубежное кино [DVD / HDDVD / BD / Remux] Исчезнувшая / Gone Girl (Дэвид Финчер / David Fincher) [2014, США, Триллер, драма, детектив, Blu-Ray Disc 1080p] [EUR] Dub + Ukr + Sub (Rus, Ukr, Eng) + Original (Eng) uzi2009
16 | 6

0 | 779

7

26.12.2014 19:29

Зарубежное кино [HDDVDRip / BDRip / WEB-DL / HDTV 1080/720р] Исчезнувшая / Gone Girl (Дэвид Финчер / David Fincher) [2014 г., триллер, драма, детектив, WEB-DL 720p] AVO (Матвеев) + Original (Eng) + Sub (Eng) 90ytr90
0 | 0

0 | 3189

14

14.12.2014 16:59


Яндекс.Метрика powered by Sphinx


В Н И М А Н И Е
Сайт не распространяет и не хранит электронные версии произведений, а лишь бесплатно и без коммерческой выгоды (не требуя взамен платы,
SMS и т.д.) предоставляет доступ к создаваемому пользователями каталогу ссылок на торрент-файлы, которые содержат только списки хеш-сумм.
Убедительная просьба с жалобами обращаться напрямую к пользователю, разместившему торрент файл.

Вверх