Loading...
Error

Зомби: Бойцовский Клуб / Zombie Fight Club (Джо Чиен) [2014 г., Ужасы, HDRip-AVC] DVO (RUS, Влад & Снежинка) + VO (RUS, ХиХиДок)

Статистика раздачи
Размер:  2,05 GB   |    Зарегистрирован:  1 год 11 месяцев   |    Скачан:  18 раз

Полного источника не было: 11 месяцев

Сидов:  0  |  0 KB/s  ]   Личеров:  0  |  0 KB/s  ]

* - сиды/пиры с внешних источников

   
 
Автор Сообщение

Ведьмочка Пол:Жен

25-Дек-2014 10:55

Зомби: Бойцовский Клуб / Zombie Fight Club


Страна: Тайвань
Год выпуска: 2014
Жанр: Ужасы
Продолжительность: 01:35:01
Режиссёр: Джо Чиен
В ролях: Джессика Камбенси, Эбби, Чанг Хань, Джек Као, Филип Нг, Энди Он, Квок Чунг Цан, Майкл Вонг, Теренс Йин
Сюжет фильма:
Мир впал во мрак. Города стали кладбищами, а кладбища городами. В доме одновременно оказываются разные люди, пришедшие туда с разными целями. Полицейские, наркодилеры, школьницы, рэперы, девицы легкого поведения, тусовщики… Они первыми и оказываются жертвами.

Небоскрёб превращается в кладбище восставших мертвецов. Эпидемия выходит на улицы города, но она меняет людей, превращая их не только в зомби. Милый и когда-то добрый учитель химии становится хозяином бойцовой арены, на которой люди сражаются с мертвецами. Что ждёт такой мир?


Озвучивание:
  • Любительский, Двухголосный, Русский [Влад & Снежинка]
  • Любительский, Одноголосный, Русский [ХиХиДок]


Качество видео: HDRip-AVC
Формат: MKV

Видео: AVC, 1024x424 (2.40:1), 24.000 fps, ~2187 Кбит/сек
Аудио #1: AC-3, 448 Кбит/сек, 6 Каналов, 48.0 КГц
Аудио #2: AC-3, 448 Кбит/сек, 6 Каналов, 48.0 КГц

Внимание! Присутствуют элементы насилия, секса и ненормативной лексики!


Общее
Уникальный идентификатор : 192537820508134364246607769707847611563 (0x90D96F7601577A43BDF8F4DD5117F4AB)
Полное имя : \Zombi.Boycovskiy.Klub.2014.x264.BDRip.(AVC).mkv
Формат : Matroska
Версия формата : Version 1
Размер файла : 2,05 Гбайт
Продолжительность : 1 ч. 35 м.
Общий поток : 3086 Кбит/сек
Дата кодирования : UTC 2014-12-23 18:38:11
Программа кодирования : mkvmerge v2.1.0 ('Another Place To Fall') built on Aug 19 2007 13:40:07
Библиотека кодирования : libebml v0.7.7 + libmatroska v0.8.1

Видео
Идентификатор : 1
Формат : AVC
Формат/Информация : Advanced Video Codec
Профиль формата : High@L4.1
Параметр CABAC формата : Да
Параметр ReFrames формата : 8 кадров
Идентификатор кодека : V_MPEG4/ISO/AVC
Продолжительность : 1 ч. 35 м.
Битрейт : 2187 Кбит/сек
Ширина : 1024 пикселя
Высота : 424 пикселя
Соотношение сторон : 2,40:1
Режим частоты кадров : Постоянный
Частота кадров : 24,000 кадра/сек
Цветовое пространство : YUV
Субдискретизация насыщенности : 4:2:0
Битовая глубина : 8 бит
Тип развёртки : Прогрессивная
Бит/(Пиксели*Кадры) : 0.210
Размер потока : 1,41 Гбайт (69%)
Библиотека кодирования : x264 core 125 r2200 999b753
Настройки программы : cabac=1 / ref=8 / deblock=1:-3:-3 / analyse=0x3:0x113 / me=umh / subme=9 / psy=1 / psy_rd=1.00:0.00 / mixed_ref=1 / me_range=32 / chroma_me=1 / trellis=2 / 8x8dct=1 / cqm=0 / deadzone=21,11 / fast_pskip=0 / chroma_qp_offset=-2 / threads=6 / lookahead_threads=1 / sliced_threads=0 / nr=0 / decimate=0 / interlaced=0 / bluray_compat=0 / constrained_intra=0 / bframes=8 / b_pyramid=2 / b_adapt=2 / b_bias=0 / direct=3 / weightb=1 / open_gop=0 / weightp=2 / keyint=240 / keyint_min=23 / scenecut=40 / intra_refresh=0 / rc=2pass / mbtree=0 / bitrate=2187 / ratetol=1.0 / qcomp=0.60 / qpmin=0 / qpmax=69 / qpstep=4 / cplxblur=20.0 / qblur=0.5 / ip_ratio=1.40 / pb_ratio=1.30 / aq=1:1.10
Язык : English
Default : Да
Forced : Нет

Аудио #1
Идентификатор : 2
Формат : AC-3
Формат/Информация : Audio Coding 3
Расширение режима : CM (complete main)
Параметр Endianness формата : Big
Идентификатор кодека : A_AC3
Продолжительность : 1 ч. 35 м.
Вид битрейта : Постоянный
Битрейт : 448 Кбит/сек
Каналы : 6 каналов
Расположение каналов : Front: L C R, Side: L R, LFE
Частота : 48,0 КГц
Битовая глубина : 16 бит
Метод сжатия : С потерями
Размер потока : 304 Мбайт (15%)
Заголовок : Любительский двухголосый (DeadSno & den904)
Язык : Russian
Default : Да
Forced : Нет

Аудио #2
Идентификатор : 3
Формат : AC-3
Формат/Информация : Audio Coding 3
Расширение режима : CM (complete main)
Параметр Endianness формата : Big
Идентификатор кодека : A_AC3
Продолжительность : 1 ч. 35 м.
Вид битрейта : Постоянный
Битрейт : 448 Кбит/сек
Каналы : 6 каналов
Расположение каналов : Front: L C R, Side: L R, LFE
Частота : 48,0 КГц
Битовая глубина : 16 бит
Метод сжатия : С потерями
Размер потока : 304 Мбайт (15%)
Заголовок : Любительский одноголосый (Хихидок)
Язык : Russian
Default : Нет
Forced : Нет

Меню
00:00:00.000 : en:00:00:00.000
00:07:56.083 : en:00:07:56.083
00:13:59.125 : en:00:13:59.125
00:23:35.958 : en:00:23:35.958
00:31:03.250 : en:00:31:03.250
00:41:25.333 : en:00:41:25.333
00:48:47.166 : en:00:48:47.166
00:56:29.541 : en:00:56:29.541
01:04:22.541 : en:01:04:22.541
01:11:38.625 : en:01:11:38.625
01:19:48.958 : en:01:19:48.958
01:31:59.708 : en:01:31:59.708
01:35:00.375 : en:01:35:00.375


picpicpicpicpic
Для увеличения картинки щелкните мышкой по превью



Этот торрент недоступен для скачивания без регистрации, однако доступен по публичной magnet-ссылке (источники с публичных трекеров). Перед использованием ссылки прочтите, пожалуйста Пользовательское соглашение, а также как можно дольше оставайтесь на раздаче! Для того, чтобы скачать сам торрент-файл (который видит больше источников), а также для того, чтобы поблагодарить релизера, вам необходимо зарегистрироваться. Если регистрироваться лень - вы можете также попробовать скачать релиз по нашим партнерским ссылкам ниже.

[underverse.su].t47686.torrent
Трекер: Зарегистрирован   [ 25.12.2014 10:55 ]  

Статус: проверено (by Ведьмочка at 25.12.2014 10:55)
Поблагодарили: пока никто не поблагодарил...
Тип торрента: публичный - доступные источники с открытых трекеров: 
Размер: 2,05 GB (занимает 0,47 DVDR, для записи нужно 1 болванка DVDR/RW)
 
 
Похожие темы
Форум Тема Автор Торрент Отв. Посл. сооб.
Зарубежное кино [HDDVDRip / BDRip / WEB-DL / HDTV 1080/720р] Зомби: Бойцовский Клуб / Zombie Fight Club (Джо Чиен) [2014 г., Ужасы, BDRip 720p] VO (RUS, ХиХиДок) + Original (CHN) Ведьмочка
10 | 0

0 | 524

5

23.12.2014 15:35


Яндекс.Метрика powered by Sphinx


В Н И М А Н И Е
Сайт не распространяет и не хранит электронные версии произведений, а лишь бесплатно и без коммерческой выгоды (не требуя взамен платы,
SMS и т.д.) предоставляет доступ к создаваемому пользователями каталогу ссылок на торрент-файлы, которые содержат только списки хеш-сумм.
Убедительная просьба с жалобами обращаться напрямую к пользователю, разместившему торрент файл.

Вверх