Loading...
Error

Общак / The Drop (Михаэль Р. Роскам) [2014 г., Драма, Криминал, WEB-DLRip-AVC] Dub (RUS, iTunes Russia) + Original (ENG) + Subs (ENG)

Статистика раздачи
Размер:  1,48 GB   |    Зарегистрирован:  1 год 11 месяцев   |    Скачан:  22 раза

Полного источника не было: 1 год 6 месяцев

Сидов:  0  |  0 KB/s  ]   Личеров:  0  |  0 KB/s  ]

* - сиды/пиры с внешних источников

   
 
Автор Сообщение

Ведьмочка Пол:Жен

25-Дек-2014 10:09

Общак / The Drop


Страна: США
Год выпуска: 2014
Жанр: Драма, Криминал
Продолжительность: 01:47:00
Режиссёр: Михаэль Р. Роскам
В ролях: Том Харди, Нуми Рапас, Джеймс Гандольфини, Маттиас Шонартс, Джон Ортис, Элизабет Родригес, Майкл Аронов, Морган Спектор, Майкл Эспер, Росс Бикелл
Сюжет фильма:
Боб Сагиновски оказывается в центре ограбления, из-за расследования которого может всплыть прошлое района, когда друзья, семьи и заклятые враги — все работали вместе, чтобы выжить…

Озвучивание:
  • Дублированный, Русский [iTunes Russia]
  • Оригинал, Английский


Качество видео: WEB-DLRip-AVC
Формат: MKV

Видео: AVC, 1024x424 (2.40:1), 23.976 fps, ~1169 Кбит/сек
Аудио #1: AC-3, 384 Кбит/сек, 6 Каналов, 48.0 КГц
Аудио #2: AC-3, 384 Кбит/сек, 6 Каналов, 48.0 КГц

Субтитры: UTF-8 [Английские, Полные]

Rip by:



Общее
Уникальный идентификатор : 209310004769374491027240747593274460519 (0x9D77A3FD58D055EA8A004A10DC138967)
Полное имя : \The.Drop.2014.x264.D.WEB-DLRip.(AVC).NovaLan.mkv
Формат : Matroska
Версия формата : Version 4 / Version 2
Размер файла : 1,48 Гбайт
Продолжительность : 1 ч. 47 м.
Общий поток : 1976 Кбит/сек
Название фильма : The.Drop.2014.x264.D.WEB-DLRip.(AVC).NovaLan
Дата кодирования : UTC 2014-12-25 07:32:37
Программа кодирования : mkvmerge v7.3.0 ('Nouages') 64bit built on Oct 22 2014 18:53:34
Библиотека кодирования : libebml v1.3.0 + libmatroska v1.4.1
DURATION : 01:46:32.576000000
NUMBER_OF_FRAMES : 199768
NUMBER_OF_BYTES : 306843648
_STATISTICS_WRITING_APP : mkvmerge v7.3.0 ('Nouages') 64bit built on Oct 22 2014 18:53:34
_STATISTICS_WRITING_DATE_UTC : 2014-12-25 07:32:37
_STATISTICS_TAGS : BPS DURATION NUMBER_OF_FRAMES NUMBER_OF_BYTES

Видео
Идентификатор : 1
Формат : AVC
Формат/Информация : Advanced Video Codec
Профиль формата : High@L4.1
Параметр CABAC формата : Да
Параметр ReFrames формата : 9 кадров
Идентификатор кодека : V_MPEG4/ISO/AVC
Продолжительность : 1 ч. 47 м.
Битрейт : 1169 Кбит/сек
Номинальный битрейт : 1397 Кбит/сек
Ширина : 1024 пикселя
Высота : 424 пикселя
Соотношение сторон : 2,40:1
Режим частоты кадров : Постоянный
Частота кадров : 23,976 кадра/сек
Цветовое пространство : YUV
Субдискретизация насыщенности : 4:2:0
Битовая глубина : 8 бит
Тип развёртки : Прогрессивная
Бит/(Пиксели*Кадры) : 0.112
Размер потока : 895 Мбайт (59%)
Заголовок : The.Drop.2014.x264.D.WEB-DLRip.(AVC).by.StarbirS
Библиотека кодирования : x264 core 142 r2431 ac76440
Настройки программы : cabac=1 / ref=9 / deblock=1:-2:-2 / analyse=0x3:0x113 / me=umh / subme=11 / psy=1 / psy_rd=1.00:0.15 / mixed_ref=1 / me_range=48 / chroma_me=1 / trellis=2 / 8x8dct=1 / cqm=0 / deadzone=21,11 / fast_pskip=0 / chroma_qp_offset=-3 / threads=12 / lookahead_threads=6 / sliced_threads=0 / nr=0 / decimate=0 / interlaced=0 / bluray_compat=0 / constrained_intra=0 / bframes=8 / b_pyramid=2 / b_adapt=2 / b_bias=0 / direct=3 / weightb=1 / open_gop=0 / weightp=2 / keyint=240 / keyint_min=23 / scenecut=40 / intra_refresh=0 / rc=2pass / mbtree=0 / bitrate=1397 / ratetol=1.0 / qcomp=0.65 / qpmin=0 / qpmax=69 / qpstep=4 / cplxblur=20.0 / qblur=0.5 / ip_ratio=1.40 / pb_ratio=1.30 / aq=1:0.90
Язык : English
Default : Да
Forced : Нет
DURATION : 01:47:00.591000000
NUMBER_OF_FRAMES : 153940
NUMBER_OF_BYTES : 970898545
_STATISTICS_WRITING_APP : mkvmerge v7.3.0 ('Nouages') 64bit built on Oct 22 2014 18:53:34
_STATISTICS_WRITING_DATE_UTC : 2014-12-25 07:32:37
_STATISTICS_TAGS : BPS DURATION NUMBER_OF_FRAMES NUMBER_OF_BYTES

Аудио #1
Идентификатор : 2
Формат : AC-3
Формат/Информация : Audio Coding 3
Расширение режима : CM (complete main)
Параметр Endianness формата : Big
Идентификатор кодека : A_AC3
Продолжительность : 1 ч. 47 м.
Вид битрейта : Постоянный
Битрейт : 384 Кбит/сек
Каналы : 6 каналов
Расположение каналов : Front: L C R, Side: L R, LFE
Частота : 48,0 КГц
Битовая глубина : 16 бит
Метод сжатия : С потерями
Размер потока : 294 Мбайт (19%)
Заголовок : Дублированный (iTunes)
Язык : Russian
Default : Да
Forced : Нет

Аудио #2
Идентификатор : 3
Формат : AC-3
Формат/Информация : Audio Coding 3
Расширение режима : CM (complete main)
Параметр Endianness формата : Big
Идентификатор кодека : A_AC3
Продолжительность : 1 ч. 47 м.
Вид битрейта : Постоянный
Битрейт : 384 Кбит/сек
Каналы : 6 каналов
Расположение каналов : Front: L C R, Side: L R, LFE
Частота : 48,0 КГц
Битовая глубина : 16 бит
Метод сжатия : С потерями
Размер потока : 294 Мбайт (19%)
Язык : English
Default : Нет
Forced : Нет

Текст
Идентификатор : 4
Формат : UTF-8
Идентификатор кодека : S_TEXT/UTF8
Идентификатор кодека/Информация : UTF-8 Plain Text
Язык : English
Default : Да
Forced : Нет

Меню
00:00:00.000 : en:Chapter 01
00:02:23.000 : en:Chapter 02
00:05:58.000 : en:Chapter 03
00:08:07.000 : en:Chapter 04
00:11:32.000 : en:Chapter 05
00:13:46.000 : en:Chapter 06
00:17:26.000 : en:Chapter 07
00:21:34.000 : en:Chapter 08
00:25:37.000 : en:Chapter 09
00:27:50.000 : en:Chapter 10
00:31:59.000 : en:Chapter 11
00:36:15.000 : en:Chapter 12
00:38:12.000 : en:Chapter 13
00:40:31.000 : en:Chapter 14
00:44:01.000 : en:Chapter 15
00:46:43.000 : en:Chapter 16
00:48:38.000 : en:Chapter 17
00:52:46.000 : en:Chapter 18
00:56:23.000 : en:Chapter 19
01:01:35.000 : en:Chapter 20
01:05:37.000 : en:Chapter 21
01:07:31.000 : en:Chapter 22
01:11:07.000 : en:Chapter 23
01:12:26.000 : en:Chapter 24
01:15:03.000 : en:Chapter 25
01:21:05.000 : en:Chapter 26
01:24:03.000 : en:Chapter 27
01:28:20.000 : en:Chapter 28
01:30:44.000 : en:Chapter 29
01:34:47.000 : en:Chapter 30
01:38:53.000 : en:Chapter 31
01:41:08.000 : en:Chapter 32


picpicpicpicpic
Для увеличения картинки щелкните мышкой по превью



Этот торрент недоступен для скачивания без регистрации, однако доступен по публичной magnet-ссылке (источники с публичных трекеров). Перед использованием ссылки прочтите, пожалуйста Пользовательское соглашение, а также как можно дольше оставайтесь на раздаче! Для того, чтобы скачать сам торрент-файл (который видит больше источников), а также для того, чтобы поблагодарить релизера, вам необходимо зарегистрироваться. Если регистрироваться лень - вы можете также попробовать скачать релиз по нашим партнерским ссылкам ниже.

[underverse.su].t47683.torrent
Трекер: Зарегистрирован   [ 25.12.2014 10:09 ]  

Статус: T временная (by Ведьмочка at 25.12.2014 10:18)
Поблагодарили: 1 человек
Тип торрента: публичный - доступные источники с открытых трекеров: 
Размер: 1,48 GB (занимает 0,34 DVDR, для записи нужно 1 болванка DVDR/RW)
 
 
Похожие темы
Форум Тема Автор Торрент Отв. Посл. сооб.
Зарубежное кино [DVDRip, Low-Res HDRip, и т.д.] Общак / The Drop (Михаэль Р. Роскам / Michael R. Roskam) [2014 г., драма, криминал, HDRip] Dub [Лицензия] Паукан
19 | 0

0 | 650

29

20.01.2015 17:01

Зарубежное кино [DVD / HDDVD / BD / Remux] Общак / The Drop (Михаэль Р. Роскам / Michael R. Roskam) [2014, США, драма, криминал, Blu-ray disc] Dub + Sub (Rus, Eng) + Original (Eng) uzi2009
4 | 0

0 | 926

9

19.01.2015 13:40

T Зарубежное кино [HDDVDRip / BDRip / WEB-DL / HDTV 1080/720р] Общак / The Drop (Михаэль Р. Роскам) [2014 г., Драма, Криминал, WEB-DL 720p] Dub (RUS, iTunes Russia) + Original (ENG) + Subs (ENG) Ведьмочка
1 | 0

0 | 698

49

25.12.2014 10:01

Зарубежное кино [HDDVDRip / BDRip / WEB-DL / HDTV 1080/720р] Общак / The Drop (Михаэль Р. Роскам / Michael R. Roskam) [2014 г., драма, криминал, BDRip 720p] Dub [Лицензия] + Sub (Rus,Eng) Паукан
8 | 0

0 | 582

18

20.01.2015 17:07

Зарубежное кино [HDDVDRip / BDRip / WEB-DL / HDTV 1080/720р] Общак / The Drop (Михаэль Р. Роскам) [2014 г., драма, криминал, BDRip 1080p] Dub + AVO (Д.Есарев) + Original + Sub (Rus,Ukr,Eng) Паукан
1 | 0

0 | 756

16

20.01.2015 17:13


Яндекс.Метрика powered by Sphinx


В Н И М А Н И Е
Сайт не распространяет и не хранит электронные версии произведений, а лишь бесплатно и без коммерческой выгоды (не требуя взамен платы,
SMS и т.д.) предоставляет доступ к создаваемому пользователями каталогу ссылок на торрент-файлы, которые содержат только списки хеш-сумм.
Убедительная просьба с жалобами обращаться напрямую к пользователю, разместившему торрент файл.

Вверх