Loading...
Error

Одержимость / The Taking (Адам Робител) [2014 г., Ужасы, Триллер, HDRip] VO (RUS, П. Морозов)

Статистика раздачи
Размер:  1,33 GB   |    Зарегистрирован:  1 год 11 месяцев   |    Скачан:  16 раз

Полного источника не было: 1 год 1 месяц

Сидов:  0  |  0 KB/s  ]   Личеров:  0  |  0 KB/s  ]

* - сиды/пиры с внешних источников

   
 
Автор Сообщение

Ведьмочка Пол:Жен

25-Дек-2014 09:41

Одержимость / The Taking


Страна: США
Год выпуска: 2014
Жанр: Ужасы, Триллер
Продолжительность: 01:30:03
Режиссёр: Адам Робител
В ролях: Джилл Ларсон, Энн Рэмси, Мишель Энг, Райан Кутрона, Энн Нахабидиан, Бретт Джентиле, Джереми ДеКарлос, Тоня Бладсворт, Джулианна Тейлор, Яна Аллен
Сюжет фильма:
То, что начиналось как трогательный документальный фильм о том, как у Деборы Логан начала развиваться болезнь Альцгеймера, и как ее дочь борется за нее, в результате превратилось в сущий кошмар. Никто не подозревал, что за болезнью Деборы скрывается куда большее зло…

Озвучивание:
  • Любительский, Одноголосный, Русский [П. Морозов]


Качество видео: HDRip
Формат: AVI

Видео: XviD, 720x400 (16:9), 23.976 fps, ~1659 Кбит/сек
Аудио: AC-3, 448 Кбит/сек, 6 Каналов, 48.0 КГц



Общее
Полное имя : \Одержимость.(2014).avi
Формат : AVI
Формат/Информация : Audio Video Interleave
Размер файла : 1,33 Гбайт
Продолжительность : 1 ч. 30 м.
Общий поток : 2116 Кбит/сек
Программа кодирования : VirtualDubMod 1.5.10.2 (build 2540/release)
Библиотека кодирования : VirtualDubMod build 2540/release

Видео
Идентификатор : 0
Формат : MPEG-4 Visual
Профиль формата : Advanced Simple@L5
Параметр BVOP формата : 2
Параметр QPel формата : Нет
Параметр GMC формата : Без точки перехода
Параметр матрицы формата : Default (H.263)
Режим смешивания : Сжатый битовый поток
Идентификатор кодека : XVID
Идентификатор кодека/Подсказка : XviD
Продолжительность : 1 ч. 30 м.
Битрейт : 1659 Кбит/сек
Ширина : 720 пикселей
Высота : 400 пикселей
Соотношение сторон : 16:9
Частота кадров : 23,976 кадра/сек
Цветовое пространство : YUV
Субдискретизация насыщенности : 4:2:0
Битовая глубина : 8 бит
Тип развёртки : Прогрессивная
Метод сжатия : С потерями
Бит/(Пиксели*Кадры) : 0.240
Размер потока : 1,04 Гбайт (78%)
Библиотека кодирования : XviD 64

Аудио
Идентификатор : 1
Формат : AC-3
Формат/Информация : Audio Coding 3
Расширение режима : CM (complete main)
Параметр Endianness формата : Big
Идентификатор кодека : 2000
Продолжительность : 1 ч. 30 м.
Вид битрейта : Постоянный
Битрейт : 448 Кбит/сек
Каналы : 6 каналов
Расположение каналов : Front: L C R, Side: L R, LFE
Частота : 48,0 КГц
Битовая глубина : 16 бит
Метод сжатия : С потерями
Размер потока : 289 Мбайт (21%)
Выравнивание : Разделение по промежуткам
Продолжительность промежутка : 42 мс. (1,00 видеокадр)
Время предзагрузки промежутка : 500 мс.


picpicpicpicpic
Для увеличения картинки щелкните мышкой по превью



Этот торрент недоступен для скачивания без регистрации, однако доступен по публичной magnet-ссылке (источники с публичных трекеров). Перед использованием ссылки прочтите, пожалуйста Пользовательское соглашение, а также как можно дольше оставайтесь на раздаче! Для того, чтобы скачать сам торрент-файл (который видит больше источников), а также для того, чтобы поблагодарить релизера, вам необходимо зарегистрироваться. Если регистрироваться лень - вы можете также попробовать скачать релиз по нашим партнерским ссылкам ниже.

[underverse.su].t47677.torrent
Трекер: Зарегистрирован   [ 25.12.2014 09:41 ]  

Статус: проверено (by Ведьмочка at 25.12.2014 20:16)
Поблагодарили: пока никто не поблагодарил...
Тип торрента: публичный - доступные источники с открытых трекеров: 
Размер: 1,33 GB (занимает 0,3 DVDR, для записи нужно 1 болванка DVDR/RW)
 
 
Похожие темы
Форум Тема Автор Торрент Отв. Посл. сооб.
Зарубежное кино [DVDRip, Low-Res HDRip, и т.д.] Одержимость / Wicker Park (Пол МакГиган) [2004 г., триллер, драма, мелодрама, детектив, HDTVRip-AVC] Dub + Original garry
39 | 4

1 | 1103

21

16.11.2012 17:30

Зарубежное кино [DVDRip, Low-Res HDRip, и т.д.] Одержимость вуду / Voodoo Possession (Уолтер Бохолст) [2013 г., Ужасы, Драма, Детектив, HDRip] DVO (RUS, Влад & Снежинка) Ведьмочка
16 | 2

0 | 494

10

27.08.2014 07:35

T Зарубежное кино [DVDRip, Low-Res HDRip, и т.д.] Одержимость Майкла Кинга / The Possession of Michael King (Дэвид Юнг) [2014 г., Ужасы, HDRip] Dub (RUS) + Original (ENG) Звук с CAMRip Ведьмочка
80 | 7

0 | 853

30

07.09.2014 20:35

Зарубежное кино [DVDRip, Low-Res HDRip, и т.д.] Одержимость Майкла Кинга / The Possession of Michael King (Дэвид Юнг) [2014 г., Ужасы, BDRip] DVO (RUS, lord666 & Miori) Ведьмочка
16 | 1

0 | 714

18

06.10.2014 04:35

T Зарубежное кино [DVDRip, Low-Res HDRip, и т.д.] Одержимость Майкла Кинга / The Possession of Michael King (Дэвид Юнг) [2014 г., Ужасы, HDRip] Dub (RUS, Чистый звук) Ведьмочка
7 | 0

0 | 460

7

01.01.2015 05:37

T Зарубежное кино [DVDRip, Low-Res HDRip, и т.д.] Одержимость Майкла Кинга / The Possession of Michael King (Дэвид Юнг / David Jung) [2014 г., ужасы, BDRip-AVC] Dub (чистый звук) + Original (Eng) 90ytr90
3 | 0

0 | 397

5

02.01.2015 08:14

Зарубежное кино [DVDRip, Low-Res HDRip, и т.д.] Одержимость Майкла Кинга / The Possession of Michael King (Дэвид Юнг / David Jung) [2014 г., ужасы, BDRip-AVC] AVO (Дольский) + Original (Eng) 90ytr90
6 | 0

0 | 335

0

02.01.2015 08:23

Зарубежное кино [DVDRip, Low-Res HDRip, и т.д.] Одержимость Майкла Кинга / The Possession of Michael King (Дэвид Юнг / David Jung) [2014 г., ужасы, HDRip] AVO (Дольский) 90ytr90
17 | 0

0 | 393

3

02.01.2015 08:35

Зарубежное кино [DVDRip, Low-Res HDRip, и т.д.] Одержимость / Whiplash (Дамьен Шазель / Damien Chazelle) [2014 г., драма, HDRip] MVO 90ytr90
8 | 0

0 | 292

17

06.02.2015 06:42

Зарубежное кино [DVDRip, Low-Res HDRip, и т.д.] Одержимость / Whiplash (Дамьен Шазель / Damien Chazelle) [2014 г., драма, HDRip] MVO + Original (Eng) 90ytr90
2 | 0

0 | 280

14

06.02.2015 06:55


Яндекс.Метрика powered by Sphinx


В Н И М А Н И Е
Сайт не распространяет и не хранит электронные версии произведений, а лишь бесплатно и без коммерческой выгоды (не требуя взамен платы,
SMS и т.д.) предоставляет доступ к создаваемому пользователями каталогу ссылок на торрент-файлы, которые содержат только списки хеш-сумм.
Убедительная просьба с жалобами обращаться напрямую к пользователю, разместившему торрент файл.

Вверх