Loading...
Error

Мажор / Серии: 1-12 из 12 (Константин Статский) [2014 г., Драма, Криминал, HDTVRip-AVC]

Статистика раздачи
Размер:  9,18 GB   |    Зарегистрирован:  1 год 11 месяцев   |    Скачан:  51 раз
Сидов:  1  |  0 KB/s  ]   Личеров:  0  |  0 KB/s  ]

* - сиды/пиры с внешних источников

   
 
Автор Сообщение

slodey76 Пол:Муж

25-Дек-2014 08:30

Мажор


Год выпуска: 2014
Жанр: Драма, Криминал
Страна: Россия
Режиссер: Константин Статский
В ролях: Павел Прилучный, Карина Разумовская, Дмитрий Шевченко, Денис Шведов, Александр Обласов, Никита Панфилов, Анна Андрусенко, Остап Ступка, Александр Дьяченко, Игорь Жижикин, Заза Чантурия, Дмитрий Гаврилов (II), Марина Дьяконенко, Алла Мартынюк, Саак Дурян
Сюжет фильма:
Главный герой – Игорь Соколовский – сын высокопоставленного и богатого человека. Имея юридическое образование, Игорь не спешит найти ему применение, прожигая жизнь в ночных клубах с друзьями. Однажды, вступившись за товарища, Игорь ввязывается в драку с полицейским. Замяв историю, отец лишает Игоря всего, отправляя работать в то самое отделение полиции. Поначалу возненавидев свою новую жизнь, Игорь постепенно становится мужчиной, встречает любовь и задаётся целью найти убийцу матери...

Качество видео: HDTVRip-AVC

Продолжительность: ~00:52:00 (каждая серия)
Формат: MKV
Видео: MPEG-4 AVC, 1024x576 (16:9), 25.000 fps, ~1700 Кбит/с
Аудио: AC3, 6 каналов, 384 Кбит/с, 48.0 КГц



Общее
Уникальный идентификатор : 138356659557587513361725506392444023305 (0x681685FB3B33F345D3961502318AB209)
Полное имя : \Мажор [12S] (2014) HDTVRip-AVC\Mazhor.12.HDTVRip-AVC.[-=DoMiNo=-].mkv
Формат : Matroska
Версия формата : Version 4 / Version 2
Размер файла : 853 Мбайт
Продолжительность : 56 м.
Общий поток : 2124 Кбит/сек
Программа кодирования : XviD4PSP 7.0 / 55.48.100
Библиотека кодирования : XviD4PSP 7.0 / 55.48.100
COMMENT : MPEGTS > MKV 1280x Progressive / H264 > X264 CRF 22.0 Custom / AC3 > COPY

Видео
Идентификатор : 1
Формат : AVC
Формат/Информация : Advanced Video Codec
Профиль формата : High@L4.1
Параметр CABAC формата : Да
Параметр ReFrames формата : 4 кадра
Идентификатор кодека : V_MPEG4/ISO/AVC
Продолжительность : 56 м.
Битрейт : 1698 Кбит/сек
Ширина : 1024 пикселя
Высота : 576 пикселей
Соотношение сторон : 16:9
Режим частоты кадров : Постоянный
Частота кадров : 25,000 кадров/сек
Цветовое пространство : YUV
Субдискретизация насыщенности : 4:2:0
Битовая глубина : 8 бит
Тип развёртки : Прогрессивная
Бит/(Пиксели*Кадры) : 0.115
Размер потока : 682 Мбайт (80%)
Библиотека кодирования : x264 core 142 r2479M dd79a61
Настройки программы : cabac=1 / ref=2 / deblock=1:-3:-3 / analyse=0x3:0x133 / me=umh / subme=6 / psy=1 / psy_rd=1,00:0,70 / mixed_ref=1 / me_range=32 / chroma_me=1 / trellis=2 / 8x8dct=1 / cqm=0 / deadzone=21,11 / fast_pskip=1 / chroma_qp_offset=-3 / threads=16 / lookahead_threads=4 / sliced_threads=0 / nr=0 / decimate=1 / interlaced=0 / bluray_compat=0 / constrained_intra=0 / bframes=11 / b_pyramid=2 / b_adapt=2 / b_bias=0 / direct=1 / weightb=1 / open_gop=0 / weightp=1 / keyint=250 / keyint_min=25 / scenecut=40 / intra_refresh=0 / rc=crf / mbtree=0 / crf=22,0 / qcomp=0,60 / qpmin=16 / qpmax=69 / qpstep=4 / ip_ratio=1,40 / pb_ratio=1,30 / aq=1:1,00
Default : Да
Forced : Нет

Аудио
Идентификатор : 2
Формат : AC-3
Формат/Информация : Audio Coding 3
Расширение режима : CM (complete main)
Параметр Endianness формата : Big
Идентификатор кодека : A_AC3
Продолжительность : 56 м.
Вид битрейта : Постоянный
Битрейт : 384 Кбит/сек
Каналы : 6 каналов
Расположение каналов : Front: L C R, Side: L R, LFE
Частота : 48,0 КГц
Битовая глубина : 16 бит
Метод сжатия : С потерями
Размер потока : 154 Мбайт (18%)
Язык : Russian
Default : Да
Forced : Нет
picpicpicpicpic
Для увеличения картинки щелкните мышкой по превью

Этот торрент недоступен для скачивания без регистрации, однако доступен по публичной magnet-ссылке (источники с публичных трекеров). Перед использованием ссылки прочтите, пожалуйста Пользовательское соглашение, а также как можно дольше оставайтесь на раздаче! Для того, чтобы скачать сам торрент-файл (который видит больше источников), а также для того, чтобы поблагодарить релизера, вам необходимо зарегистрироваться. Если регистрироваться лень - вы можете также попробовать скачать релиз по нашим партнерским ссылкам ниже.

[underverse.su].t47673.torrent
Трекер: Зарегистрирован   [ 25.12.2014 08:30 ]  

Статус: проверено (by Ведьмочка at 25.12.2014 09:02)
Поблагодарили: 3 человека
Тип торрента: публичный - доступные источники с открытых трекеров: 
Размер: 9,18 GB (занимает 2,1 DVDR, для записи нужно 3 болванки DVDR/RW)
 
 

Ведьмочка Пол:Жен

25-Дек-2014 09:28

1. Количество скриншотов - не менее трёх.
2. После названия точек ставить не нужно.
3. Желательно добавлять отчёт MediaInfo.
4. Если раздаёте сериал, в шапке не забывайте указывать серии.

Всё вам поправила. В первый и последний раз.

Denis_ka Пол:Муж

31-Мар-2015 15:59

хороший сериал

Яндекс.Метрика powered by Sphinx


В Н И М А Н И Е
Сайт не распространяет и не хранит электронные версии произведений, а лишь бесплатно и без коммерческой выгоды (не требуя взамен платы,
SMS и т.д.) предоставляет доступ к создаваемому пользователями каталогу ссылок на торрент-файлы, которые содержат только списки хеш-сумм.
Убедительная просьба с жалобами обращаться напрямую к пользователю, разместившему торрент файл.

Вверх