Loading...
Error

Братья по обмену / Сезон 2 / Серии 1-12 из 12 (Александр Жигалкин) [2014 г., комедия, SatRip]

Статистика раздачи
Размер:  7,23 GB   |    Зарегистрирован:  1 год 11 месяцев   |    Скачан:  24 раза

Полного источника не было: 1 месяц 28 дней

Сидов:  0  |  0 KB/s  ]   Личеров:  0  |  0 KB/s  ]

* - сиды/пиры с внешних источников

   
 
Автор Сообщение

nemos Пол:Муж

23-Дек-2014 17:11



Год выпуска: 2014
Жанр: комедия
Страна: Россия
Режиссер: Александр Жигалкин

Качество видео: SatRip

Продолжительность: 00:44:03 (Серия)
Формат: AVI
Видео: XviD, 720x400, 1 800 kbps
Аудио: русский, AC3 2.0, 192 kbps
Федор Добронравов (Валерий Игнатьевич Перечихин / Федор Игнатьевич Перечихин), Мария Аронова (Тамара Николаевна), Борис Клюев (Олег Дмитриевич Чумаков, председатель тендерной комиссии), Елена Шевченко (Марина, жена Валерия), Сергей Беляев (Александр Сергеевич Белкин, майор), Мария Горбань (Настя Травкина), Карэн Бадалов (Георгий Атосович Мерзляков, президент фирмы «Магистраль»), Олег Кассин (Савелий Тарасович Хрущенко, прапорщик), Галина Петрова (Елена Дмитриевна, домоправительница), Виктор Добронравов (Тимофей Егоров, киллер), Марина Ильина (Ольга Евгеньевна, жена генерала), Алексей Якубов (Петр Васильевич, генерал)

Валерий Перечихин - фигура большого масштаба, владелец крупной дорожно-строительной компании, консультант Общественного Совета при Комиссии Госдумы по транспорту, известный благотворительностью и выступлениями по телевизору. Моложав, гладко выбрит, хорошо одет.
Федор Перечихин - брат-близнец Валерия, человек добрый, но слабый, выпивает, часто меняет работу, разведён, имеет срок за утопленный трактор и живет на поселении в пяти километрах от отцовского дома. Щетинист, лысоват, плохо выглядит.
Два брата-близнеца после тридцатилетней разлуки встречаются на родине, в глухом селе, на похоронах отца, который когда-то выгнал Валерия из дома. После похорон братья крепко выпивают, ссорятся и дерутся.
На утро по стечению обстоятельств они меняются местами: московский бизнесмен попадает на поселение, а его сельский брат-близнец отправляется в Москву. Эта рокировка влечет за собой перемены не только в них, но и в их ближайшем окружении.

Код:

D:\ФИЛЬМЫ-1\Bratya.Po.Obmenu-2.SATRip\Bratya.Po.Obmenu-2.01.SATRip.avi
   General
      Complete name : D:\ФИЛЬМЫ-1\Bratya.Po.Obmenu-2.SATRip\Bratya.Po.Obmenu-2.01.SATRip.avi
      Format : AVI
      Format/Info : Audio Video Interleave
      File size : 631 MiB
      Duration : 44mn 3s
      Overall bit rate : 2 002 Kbps
      Writing application : VirtualDubMod 1.5.10.3 | www.virtualdub-fr.org || (build 2550/release)
      Writing library : VirtualDubMod build 2550/release
   Video #0
      ID : 0
      Format : MPEG-4 Visual
      Format profile : Advanced Simple@L5
      Format settings, BVOP : 2
      Format settings, QPel : No
      Format settings, GMC : No warppoints
      Format settings, Matrix : Default (H.263)
      Codec ID : XVID
      Codec ID/Hint : XviD
      Duration : 44mn 3s
      Bit rate : 1 800 Kbps
      Width : 720 pixels
      Height : 400 pixels
      Display aspect ratio : 16:9
      Frame rate : 25.000 fps
      Color space : YUV
      Chroma subsampling : 4:2:0
      Bit depth : 8 bits
      Scan type : Progressive
      Compression mode : Lossy
      Bits/(Pixel*Frame) : 0.250
      Stream size : 567 MiB (90%)
      Writing library : XviD 1.2.1 (UTC 2008-12-04)
   Audio #1
      ID : 1
      Format : AC-3
      Format/Info : Audio Coding 3
      Mode extension : CM (complete main)
      Format settings, Endianness : Big
      Codec ID : 2000
      Duration : 44mn 3s
      Bit rate mode : Constant
      Bit rate : 192 Kbps
      Channel(s) : 2 channels
      Channel positions : Front: L R
      Sampling rate : 48.0 KHz
      Bit depth : 16 bits
      Compression mode : Lossy
      Stream size : 60.5 MiB (10%)
      Alignment : Split accross interleaves
      Interleave, duration : 40 ms (1.00 video frame)
      Interleave, preload duration : 500 ms
picpicpicpicpicpicpicpicpic
Для увеличения картинки щелкните мышкой по превью

Этот торрент недоступен для скачивания без регистрации, однако доступен по публичной magnet-ссылке (источники с публичных трекеров). Перед использованием ссылки прочтите, пожалуйста Пользовательское соглашение, а также как можно дольше оставайтесь на раздаче! Для того, чтобы скачать сам торрент-файл (который видит больше источников), а также для того, чтобы поблагодарить релизера, вам необходимо зарегистрироваться. Если регистрироваться лень - вы можете также попробовать скачать релиз по нашим партнерским ссылкам ниже.

[underverse.su].t47695.torrent
Трекер: Зарегистрирован   [ 25.12.2014 17:27 ]  

Статус: проверено (by nemos at 25.12.2014 17:27)
Поблагодарили: 2 человека
Тип торрента: публичный - доступные источники с открытых трекеров: 
Размер: 7,23 GB (занимает 1,65 DVDR, для записи нужно 2 болванки DVDR/RW)
 
 
Похожие темы
Форум Тема Автор Торрент Отв. Посл. сооб.
Зарубежные сериалы Братья по оружию / Band of Brothers (Дэвид Фрэнкел, Микаэл Саломон) [2001 (1 сезон) г., боевик, военный, история, BDRip] garry
2 | 0

0 | 1597

5

14.09.2011 19:41

xUSSR сериалы Братья по обмену / Серии 1-10 (10) (Александр Жигалкин) [2013 г., Комедия, SatRip] nemos
1 | 0

2 | 1244

33

17.11.2013 15:06



Последний раз редактировалось: nemos (29.12.2014 15:00), всего редактировалось 4 раз(а)

nemos Пол:Муж

24-Дек-2014 18:24

Раздача обновлена! 12 серий.

kursant Пол:Муж

04-Янв-2015 22:43

Спасибо,классный.

Яндекс.Метрика powered by Sphinx


В Н И М А Н И Е
Сайт не распространяет и не хранит электронные версии произведений, а лишь бесплатно и без коммерческой выгоды (не требуя взамен платы,
SMS и т.д.) предоставляет доступ к создаваемому пользователями каталогу ссылок на торрент-файлы, которые содержат только списки хеш-сумм.
Убедительная просьба с жалобами обращаться напрямую к пользователю, разместившему торрент файл.

Вверх