Loading...
Error

Занесло / Redirected (Эмилис Веливис) [2014 г., боевик, триллер, драма, комедия, WEB-DLRip] VO [R.A.I.M]

Статистика раздачи
Размер:  700 MB   |    Зарегистрирован:  1 год 11 месяцев   |    Скачан:  30 раз

Полного источника не было: 3 месяца 19 дней

Сидов:  0  |  0 KB/s  ]   Личеров:  0  |  0 KB/s  ]

* - сиды/пиры с внешних источников

   
 
Автор Сообщение

Паукан Пол:Муж

23-Дек-2014 14:03

Занесло / Redirected


Название: Занесло
Оригинальное название: Redirected
Год выпуска: 2014
Жанр: боевик, триллер, драма, комедия
Режиссёр: Эмилис Веливис
Актеры фильма: [/b]Винни Джонс, Скот Уильямс, Гил Дарнелл, Энтони Страхан, Андрюс Жюраускас, Витаутас Шапранаускас, Артур Смольянинов, Вита Сяусюнайте

Описание: Картина повествует о необычайных приключениях в Литве четырёх англичан — Майкла, Джонни, Бена и Тима. После удачного налёта в Лондоне на нелегальное казино, «славная четвёрка» садится в самолет, летящий в Малайзию. Кажется, все идёт по плану. Но… Никто не мог предусмотреть проделок вулкана Эйяфьядлайёкюдля, извержение которого вынудило самолет с англичанами сесть в Вильнюсе. Мало того, помимо местных разборок и приключений на все части тела, друзьям приходится спасаться от жаждущего мести владельца ограбленного казино.



Страна: Великобритания, Литва / Kinokultas, Wellington Films
Продолжительность: 01:39:03
Перевод: Любительское (одноголосое) [R.A.I.M] по переводу Сергея Гиллана
Внимание присутствует ненормативная лексика!

Кодек: XviD
Качество: WEB-DLRip (Исх. WEB-DL 720р)
Видео: 688x288 (2.39:1), 23.976 fps, XviD build 73 ~851 kbps avg, 0.18 bit/pixel
Звук: 48 kHz, MPEG Layer 3, 2 ch, ~128.00 kbps avg
Субтитры: нет

Семпл
Общее
Полное имя : S:ФильмыЗанесло. 2014. WEB-DLRip. (AleksSin).avi
Формат : AVI
Формат/Информация : Audio Video Interleave
Размер файла : 700 Мбайт
Продолжительность : 1 ч. 39 м.
Общий поток : 988 Кбит/сек
Программа кодирования : VirtualDubMod 1.5.10.3 | www.virtualdub-fr.org || (build 2550/release)
Библиотека кодирования : VirtualDubMod build 2550/release

Видео
Идентификатор : 0
Формат : MPEG-4 Visual
Профиль формата : Advanced Simple@L5
Параметр BVOP формата : 1
Параметр QPel формата : Нет
Параметр GMC формата : Без точки перехода
Параметр матрицы формата : Выборочная
Идентификатор кодека : XVID
Идентификатор кодека/Подсказка : XviD
Продолжительность : 1 ч. 39 м.
Битрейт : 851 Кбит/сек
Ширина : 688 пикс.
Высота : 288 пикс.
Соотношение сторон : 2,40:1
Частота кадров : 23,976 кадр/сек
Цветовое пространство : YUV
Подвыборка цветности : 4:2:0
Битовая глубина : 8 бит
Тип развёртки : Прогрессивная
Метод сжатия : С потерями
Бит/(Пиксели*Кадры) : 0.179
Размер потока : 603 Мбайт (86%)
Библиотека кодирования : XviD 73

Аудио
Идентификатор : 1
Формат : MPEG Audio
Версия формата : Version 1
Профиль формата : Layer 3
Идентификатор кодека : 55
Идентификатор кодека/Подсказка : MP3
Продолжительность : 1 ч. 39 м.
Вид битрейта : Постоянный
Битрейт : 128 Кбит/сек
Каналы : 2 канала
Частота : 48,0 КГц
Метод сжатия : С потерями
Размер потока : 90,7 Мбайт (13%)
Выравнивание : Соединение по промежуткам
Продолжительность промежутка : 42 мс. (1,00 видеокадр)
Время предзагрузки промежутка : 504 ms
Библиотека кодирования : LAME3.99r
Настройки программы : -m s -V 4 -q 2 -lowpass 17 -b 128
pic pic pic
Для увеличения картинки щелкните мышкой по превью

Этот торрент недоступен для скачивания без регистрации, однако доступен по публичной magnet-ссылке (источники с публичных трекеров). Перед использованием ссылки прочтите, пожалуйста Пользовательское соглашение, а также как можно дольше оставайтесь на раздаче! Для того, чтобы скачать сам торрент-файл (который видит больше источников), а также для того, чтобы поблагодарить релизера, вам необходимо зарегистрироваться. Если регистрироваться лень - вы можете также попробовать скачать релиз по нашим партнерским ссылкам ниже.

[underverse.su].t47632.torrent
Трекер: Зарегистрирован   [ 23.12.2014 14:03 ]  

Статус: проверено (by Паукан at 23.12.2014 14:03)
Поблагодарили: пока никто не поблагодарил...
Тип торрента: публичный - доступные источники с открытых трекеров: 
Размер: 700 MB (занимает 0,16 DVDR, для записи нужно 1 болванка DVDR/RW)
 
 
Похожие темы
Форум Тема Автор Торрент Отв. Посл. сооб.
Зарубежное кино [DVDRip, Low-Res HDRip, и т.д.] Занесло / Redirected (Эмилис Веливис / Emilis Velyvis) [2014 г., боевик, триллер, драма, комедия, WEB-DLRip] VO (R.A.I.M) 90ytr90
4 | 0

0 | 1153

60

22.12.2014 17:15

Зарубежное кино [DVDRip, Low-Res HDRip, и т.д.] Занесло / Redirected (Эмилис Веливис / Emilis Velyvis) [2014 г., боевик, триллер, драма, комедия, WEB-DLRip] MVO ("Paradox") + Original (Eng) 90ytr90
5 | 0

0 | 758

13

01.01.2015 20:33

Зарубежное кино [DVDRip, Low-Res HDRip, и т.д.] Занесло / Redirected (Эмилис Веливис) [2014 г., боевик, триллер, комедия, WEB-DLRip] AVO [Алексей Матвеев aka Doctor Joker] Паукан
11 | 0

0 | 731

23

20.01.2015 17:44

Зарубежное кино [DVDRip, Low-Res HDRip, и т.д.] Занесло / Redirected (Эмилис Веливис / Emilis Velyvis) [2014 г., боевик, триллер, драма, комедия, BDRip] MVO ("Paradox") + AVO (Матвеев) 90ytr90
1 | 0

0 | 273

11

31.01.2015 22:05

Зарубежное кино [DVDRip, Low-Res HDRip, и т.д.] Занесло / Redirected (Эмилис Веливис / Emilis Velyvis) [2014 г., боевик, триллер, драма, комедия, BDRip-AVC] MVO ("Paradox") + 3xAVO (Матвеев, Гаевский, Котов) + Original (Eng) + Sub (Rus,... 90ytr90
39 | 0

0 | 267

4

31.01.2015 22:06

Зарубежное кино [DVDRip, Low-Res HDRip, и т.д.] Занесло / Redirected (Эмилис Веливис / Emilis Velyvis) [2014 г., боевик, триллер, драма, комедия, BDRip-AVC] AVO (Гаевский) + Original (Eng) + Sub (Rus, Eng) 90ytr90
1 | 0

0 | 316

10

02.02.2015 19:19

Зарубежное кино [HDDVDRip / BDRip / WEB-DL / HDTV 1080/720р] Занесло / Redirected (Эмилис Веливис / Emilis Velyvis) [2014 г., боевик, триллер, драма, комедия, WEB-DL 720p] VO (R.A.I.M) + Original (Eng) 90ytr90
26 | 0

0 | 1144

45

22.12.2014 17:29

Зарубежное кино [HDDVDRip / BDRip / WEB-DL / HDTV 1080/720р] Занесло / Redirected (Эмилис Веливис / Emilis Velyvis) [2014 г., боевик, триллер, драма, комедия, WEB-DL 720p] MVO ("Paradox") + VO (R.A.I.M) + Original (Eng) 90ytr90
52 | 0

0 | 703

18

01.01.2015 20:42

Зарубежное кино [HDDVDRip / BDRip / WEB-DL / HDTV 1080/720р] Занесло / Redirected (Эмилис Веливис / Emilis Velyvis) [2014 г., боевик, триллер, драма, комедия, BDRip 720p] 2xAVO (Матвеев, Гаевский) + MVO ("Paradox") + Original (Eng) + Sub (Rus) 90ytr90
3 | 0

0 | 298

7

31.01.2015 22:41

Зарубежное кино [HDDVDRip / BDRip / WEB-DL / HDTV 1080/720р] Занесло / Redirected (Эмилис Веливис / Emilis Velyvis) [2014 г., боевик, триллер, драма, комедия, BDRip 720p] AVO (Котов) 90ytr90
1 | 0

0 | 310

4

02.02.2015 17:46


Яндекс.Метрика powered by Sphinx


В Н И М А Н И Е
Сайт не распространяет и не хранит электронные версии произведений, а лишь бесплатно и без коммерческой выгоды (не требуя взамен платы,
SMS и т.д.) предоставляет доступ к создаваемому пользователями каталогу ссылок на торрент-файлы, которые содержат только списки хеш-сумм.
Убедительная просьба с жалобами обращаться напрямую к пользователю, разместившему торрент файл.

Вверх