Loading...
Error

Черта / Серии 1-4 из 8 (Вадим Дубровицкий) [2014 г., боевик, приключения, SatRip] (Обновляемая)

Статистика раздачи
Размер:  1,96 GB   |    Зарегистрирован:  1 год 11 месяцев   |    Скачан:  36 раз
Сидов:  1  |  0 KB/s  ]   Личеров:  0  |  0 KB/s  ]

* - сиды/пиры с внешних источников

   
 
Автор Сообщение

nemos Пол:Муж

22-Дек-2014 15:26

Черта


Год выпуска: 2014
Жанр: боевик, приключения
Страна: Россия
Режиссер: Вадим Дубровицкий
В ролях: Станислав Любшин, Ольга Волкова, Павел Любимцев, Олег Мазуров, Александр Чекалин, Анна Дубровская, Владимир Капустин
Сюжет фильма:
1918 год. Москва изнывает под террором десятков банд, которые буквально захватили город, не встречая сопротивления властей. Бывшему матросу-балтийцу Александру Трепалову поручают возглавить вновь созданную структуру - Московский Уголовный Розыск. За короткий срок Трепалов становится героем легенд и грозой «граждан вольного города Хивы», как именовали себя бандиты Хитровки.


Качество видео: SatRip

Продолжительность: 00:431:30 (Серия)
Формат: AVI
Видео: XviD, 720x400 , 1483 kbps
Аудио: русский, AC3 2.0, 192 kbps

Код:

D:\ФИЛЬМЫ-1\Cherta.2014.SATRip.Files-x.GeneralFilm\01.Cherta.2014.SATRip.Files-x.GeneralFilm.avi
   General
      Complete name : D:\ФИЛЬМЫ-1\Cherta.2014.SATRip.Files-x.GeneralFilm\01.Cherta.2014.SATRip.Files-x.GeneralFilm.avi
      Format : AVI
      Format/Info : Audio Video Interleave
      File size : 500 MiB
      Duration : 41mn 30s
      Overall bit rate : 1 685 Kbps
      Writing application : VirtualDubModRus 1.5.10.2 (build 2542/release)
      Writing library : VirtualDubMod build 2542/release
   Video #0
      ID : 0
      Format : MPEG-4 Visual
      Format profile : Advanced Simple@L5
      Format settings, BVOP : 1
      Format settings, QPel : No
      Format settings, GMC : No warppoints
      Format settings, Matrix : Custom
      Codec ID : XVID
      Codec ID/Hint : XviD
      Duration : 41mn 30s
      Bit rate : 1 483 Kbps
      Width : 720 pixels
      Height : 400 pixels
      Display aspect ratio : 16:9
      Frame rate : 25.000 fps
      Color space : YUV
      Chroma subsampling : 4:2:0
      Bit depth : 8 bits
      Scan type : Progressive
      Compression mode : Lossy
      Bits/(Pixel*Frame) : 0.206
      Stream size : 440 MiB (88%)
      Writing library : XviD 73
   Audio #1
      ID : 1
      Format : AC-3
      Format/Info : Audio Coding 3
      Mode extension : CM (complete main)
      Format settings, Endianness : Big
      Codec ID : 2000
      Duration : 41mn 30s
      Bit rate mode : Constant
      Bit rate : 192 Kbps
      Channel(s) : 2 channels
      Channel positions : Front: L R
      Sampling rate : 48.0 KHz
      Bit depth : 16 bits
      Compression mode : Lossy
      Stream size : 57.0 MiB (11%)
      Alignment : Split accross interleaves
      Interleave, duration : 40 ms (1.00 video frame)
      Interleave, preload duration : 500 ms
picpicpicpicpicpicpicpicpicpicpicpicpic
Для увеличения картинки щелкните мышкой по превью

Этот торрент недоступен для скачивания без регистрации, однако доступен по публичной magnet-ссылке (источники с публичных трекеров). Перед использованием ссылки прочтите, пожалуйста Пользовательское соглашение, а также как можно дольше оставайтесь на раздаче! Для того, чтобы скачать сам торрент-файл (который видит больше источников), а также для того, чтобы поблагодарить релизера, вам необходимо зарегистрироваться. Если регистрироваться лень - вы можете также попробовать скачать релиз по нашим партнерским ссылкам ниже.

[underverse.su].t47614.torrent
Трекер: Зарегистрирован   [ 22.12.2014 15:26 ]  

Статус: T временная (by nemos at 22.12.2014 15:26)
Поблагодарили: 2 человека
Тип торрента: публичный - доступные источники с открытых трекеров: 
Размер: 1,96 GB (занимает 0,45 DVDR, для записи нужно 1 болванка DVDR/RW)
 
 

Яндекс.Метрика powered by Sphinx


В Н И М А Н И Е
Сайт не распространяет и не хранит электронные версии произведений, а лишь бесплатно и без коммерческой выгоды (не требуя взамен платы,
SMS и т.д.) предоставляет доступ к создаваемому пользователями каталогу ссылок на торрент-файлы, которые содержат только списки хеш-сумм.
Убедительная просьба с жалобами обращаться напрямую к пользователю, разместившему торрент файл.

Вверх