Loading...
Error

Гость / The Guest (Адам Вингард) [2014 г., боевик, триллер, детектив, НDRip] DVO [datynet и Галина Васюкова]

Статистика раздачи
Размер:  700 MB   |    Зарегистрирован:  1 год 11 месяцев   |    Скачан:  9 раз

Полного источника не было: 5 месяцев 12 дней

Сидов:  0  |  0 KB/s  ]   Личеров:  0  |  0 KB/s  ]

* - сиды/пиры с внешних источников

   
 
Автор Сообщение

Паукан Пол:Муж

22-Дек-2014 12:49

Гость / The Guest


Название: Гость
Оригинальное название: The Guest
Год выхода: 2014
Жанр: боевик, триллер, детектив
Режиссер-постановщик: Адам Вингард
В ролях: Дэн Стивенс, Майка Монро, Брендан Мейер, Шейла Келли, Лиленд Орсер, Лэнс Реддик, Табата Шон, Чейз Уильямсон, Джоэль Мур, Стивен Браун

Описание:
В семью, потерявшую на войне своего сына и брата, приезжает незнакомец. Он представляется сослуживцем погибшего и напрашивается погостить у них несколько дней, чтобы познакомиться поближе, а заодно рассказать о своей службе. Незнакомец очень приветлив и добр к каждому из членов семьи и при каждом удобном случае старается чем-то помочь. Однако вскоре эта помощь становится все более и более радикальной......


Страна: США
Продолжительность: 01:40:24
Перевод: Любительский двухголосый [datynet и Галина Васюкова]

Кодек: XviD
Качество: НDRip (Исх. BDRip 720p)
Видео: 688x288 (2.39:1), 23.976 fps, XviD build 73 ~838 kbps avg, 0.18 bit/pixel
Звук: 48 kHz, MPEG Layer 3, 2 ch, ~128.00 kbps avg
Субтитры: нет

Семпл
Общее
Полное имя : Гость. 2014. HDRip. (AleksSin).avi
Формат : AVI
Формат/Информация : Audio Video Interleave
Размер файла : 700 Мбайт
Продолжительность : 1 ч. 40 м.
Общий поток : 975 Кбит/сек
Программа кодирования : VirtualDubMod 1.5.10.3 | www.virtualdub-fr.org || (build 2550/release)
Библиотека кодирования : VirtualDubMod build 2550/release

Видео
Идентификатор : 0
Формат : MPEG-4 Visual
Профиль формата : Advanced Simple@L5
Параметр BVOP формата : 1
Параметр QPel формата : Нет
Параметр GMC формата : Без точки перехода
Параметр матрицы формата : Выборочная
Идентификатор кодека : XVID
Идентификатор кодека/Подсказка : XviD
Продолжительность : 1 ч. 40 м.
Битрейт : 838 Кбит/сек
Ширина : 688 пикс.
Высота : 288 пикс.
Соотношение сторон : 2,40:1
Частота кадров : 23,976 кадр/сек
Цветовое пространство : YUV
Подвыборка цветности : 4:2:0
Битовая глубина : 8 бит
Тип развёртки : Прогрессивная
Метод сжатия : С потерями
Бит/(Пиксели*Кадры) : 0.176
Размер потока : 602 Мбайт (86%)
Библиотека кодирования : XviD 73

Аудио
Идентификатор : 1
Формат : MPEG Audio
Версия формата : Version 1
Профиль формата : Layer 3
Идентификатор кодека : 55
Идентификатор кодека/Подсказка : MP3
Продолжительность : 1 ч. 40 м.
Вид битрейта : Постоянный
Битрейт : 128 Кбит/сек
Каналы : 2 канала
Частота : 48,0 КГц
Метод сжатия : С потерями
Размер потока : 91,9 Мбайт (13%)
Выравнивание : Соединение по промежуткам
Продолжительность промежутка : 42 мс. (1,00 видеокадр)
Время предзагрузки промежутка : 504 ms
Библиотека кодирования : LAME3.99r
Настройки программы : -m s -V 4 -q 2 -lowpass 17 -b 128
pic pic pic
Для увеличения картинки щелкните мышкой по превью

Этот торрент недоступен для скачивания без регистрации, однако доступен по публичной magnet-ссылке (источники с публичных трекеров). Перед использованием ссылки прочтите, пожалуйста Пользовательское соглашение, а также как можно дольше оставайтесь на раздаче! Для того, чтобы скачать сам торрент-файл (который видит больше источников), а также для того, чтобы поблагодарить релизера, вам необходимо зарегистрироваться. Если регистрироваться лень - вы можете также попробовать скачать релиз по нашим партнерским ссылкам ниже.

[underverse.su].t47596.torrent
Трекер: Зарегистрирован   [ 22.12.2014 12:49 ]  

Статус: проверено (by Паукан at 22.12.2014 12:49)
Поблагодарили: пока никто не поблагодарил...
Тип торрента: публичный - доступные источники с открытых трекеров: 
Размер: 700 MB (занимает 0,16 DVDR, для записи нужно 1 болванка DVDR/RW)
 
 
Похожие темы
Форум Тема Автор Торрент Отв. Посл. сооб.
Зарубежное кино [DVDRip, Low-Res HDRip, и т.д.] Гость / The Caller (Мэттью Паркхилл / Matthew Parkhill) [2011 г., ужасы, триллер, детектив, DVDRip] Korsar111
0 | 0

1 | 944

11

05.10.2011 07:52

Зарубежное кино [DVDRip, Low-Res HDRip, и т.д.] Гость / The Caller (Мэттью Паркхилл) [2011 г., триллер, детектив, HDRip] MVO TERRAN
1 | 0

0 | 910

13

04.04.2013 09:40

Зарубежное кино [DVDRip, Low-Res HDRip, и т.д.] Гость / The Caller (Мэттью Паркхилл / Matthew Parkhill) [2011 г., Триллер, детектив, BDRip-AVC] MVO + Original R5 Gaarochi
2 | 0

0 | 773

3

09.05.2013 20:16

Зарубежное кино [DVDRip, Low-Res HDRip, и т.д.] Гость / The Guest (Адам Вингард / Adam Wingard) [2014 г., боевик, триллер, детектив, HDRip] DVO (datynet и Галина Васюкова) + Original (Eng) 90ytr90
2 | 0

0 | 923

68

06.12.2014 09:55

Зарубежное кино [DVDRip, Low-Res HDRip, и т.д.] Гость / The Guest (Адам Вингард) [2014 г., боевик, триллер, детектив, HDRip] AVO [Doctor Joker] Паукан
2 | 0

0 | 574

6

22.12.2014 08:30

Зарубежное кино [DVDRip, Low-Res HDRip, и т.д.] Гость / The Guest (Адам Вингард / Adam Wingard) [2014 г., боевик, триллер, детектив, HDRip] AVO [А.Матвеев] Паукан
0 | 0

0 | 972

50

26.12.2014 10:08

T Зарубежное кино [DVDRip, Low-Res HDRip, и т.д.] Гость / The Guest (Адам Вингард / Adam Wingard) [2014 г., боевик, триллер, детектив, HDRip] Dub (iTunes) 90ytr90
4 | 0

0 | 638

21

25.02.2015 20:43

T Зарубежное кино [DVDRip, Low-Res HDRip, и т.д.] Гость / The Guest (Адам Вингард / Adam Wingard) [2014 г., боевик, триллер, детектив, HDRip-AVC] Dub (iTunes) 90ytr90
1 | 0

0 | 588

13

26.02.2015 05:23

T Зарубежное кино [DVDRip, Low-Res HDRip, и т.д.] Гость / The Guest (Адам Вингард / Adam Wingard) [2014 г., боевик, триллер, детектив, BDRip-AVC] Dub (iTunes) + AVO (Матвеев) + Original (Eng) + Sub (Rus, Eng) 90ytr90
26 | 1

0 | 528

12

26.02.2015 17:40

T Зарубежное кино [DVDRip, Low-Res HDRip, и т.д.] Гость / The Guest (Адам Вингард / Adam Wingard) [2014 г., боевик, триллер, детектив, HDRip] Dub (iTunes) 90ytr90
0 | 0

0 | 662

11

26.02.2015 17:43


Яндекс.Метрика powered by Sphinx


В Н И М А Н И Е
Сайт не распространяет и не хранит электронные версии произведений, а лишь бесплатно и без коммерческой выгоды (не требуя взамен платы,
SMS и т.д.) предоставляет доступ к создаваемому пользователями каталогу ссылок на торрент-файлы, которые содержат только списки хеш-сумм.
Убедительная просьба с жалобами обращаться напрямую к пользователю, разместившему торрент файл.

Вверх