Loading...
Error

Моя Госпожа / My Mistress (Стивен Лэнс) [2014 г., драма, мелодрама, SATRip] MVO

Статистика раздачи
Размер:  1,46 GB   |    Зарегистрирован:  1 год 11 месяцев   |    Скачан:  19 раз

Полного источника не было: 3 дня

Сидов:  0  |  0 KB/s  ]   Личеров:  0  |  0 KB/s  ]

* - сиды/пиры с внешних источников

   
 
Автор Сообщение

Паукан Пол:Муж

22-Дек-2014 08:22

Моя Госпожа / My Mistress


Название: Моя Госпожа
Оригинальное название: My Mistress
Год выхода: 2014
Жанр: Драма, мелодрама
Режиссер-постановщик: Стивен Лэнс
Актеры фильма: Эммануэль Беар, Харрисон Гилбертсон, Рэйчел Блейк, Сократис Отто, Хью Паркер, Леа Пурселл, Малкольм Кеннард, Робин Мур, Ной Фонтейн, Монетт Ли

Описание:
Красивые и невинные отношения, завязавшиеся между романтичным подростком и француженкой, склонной к садомазохизму, вскоре становятся очень опасными…



Страна: Австралия
Студия: Mini Studios
Продолжительность: 01:39:58
Перевод: Профессиональный многоголосый

Кодек: XviD
Качество: SATRip
Видео: 1698 Кбит/с, 720x304, 25.000 кадр/с
Звук: Русский (АС3, 6 ch, 384 Кбит/с)

Семпл
Общее
Полное имя : Moja.Gospozha.2014.SATRip.MediaClub.avi
Формат : AVI
Формат/Информация : Audio Video Interleave
Размер файла : 1,46 Гбайт
Продолжительность : 1 ч. 39 м.
Общий поток : 2091 Кбит/сек
Название фильма : MediaClub
Программа кодирования : VirtualDubMod 1.5.10.2 (build 2540/release)
Библиотека кодирования : VirtualDubMod build 2540/release

Видео
Идентификатор : 0
Формат : MPEG-4 Visual
Профиль формата : Advanced Simple@L5
Параметр BVOP формата : 2
Параметр QPel формата : Нет
Параметр GMC формата : Без точки перехода
Параметр матрицы формата : Default (MPEG)
Идентификатор кодека : XVID
Идентификатор кодека/Подсказка : XviD
Продолжительность : 1 ч. 39 м.
Битрейт : 1698 Кбит/сек
Ширина : 720 пикселей
Высота : 304 пикселя
Соотношение сторон : 2,35:1
Частота кадров : 25,000 кадров/сек
Цветовое пространство : YUV
Субдискретизация насыщенности : 4:2:0
Битовая глубина : 8 бит
Тип развёртки : Прогрессивная
Метод сжатия : С потерями
Бит/(Пиксели*Кадры) : 0.310
Размер потока : 1,19 Гбайт (81%)
Библиотека кодирования : XviD 65

Аудио
Идентификатор : 1
Формат : AC-3
Формат/Информация : Audio Coding 3
Расширение режима : CM (complete main)
Параметр Endianness формата : Big
Идентификатор кодека : 2000
Продолжительность : 1 ч. 39 м.
Вид битрейта : Постоянный
Битрейт : 384 Кбит/сек
Каналы : 6 каналов
Расположение каналов : Front: L C R, Side: L R, LFE
Частота : 48,0 КГц
Битовая глубина : 16 бит
Метод сжатия : С потерями
Задержка видео : 12 мс.
Размер потока : 275 Мбайт (18%)
Выравнивание : Разделение по промежуткам
Продолжительность промежутка : 40 мс. (1,00 видеокадр)
Время предзагрузки промежутка : 500 мс.
pic pic pic
Для увеличения картинки щелкните мышкой по превью

Этот торрент недоступен для скачивания без регистрации, однако доступен по публичной magnet-ссылке (источники с публичных трекеров). Перед использованием ссылки прочтите, пожалуйста Пользовательское соглашение, а также как можно дольше оставайтесь на раздаче! Для того, чтобы скачать сам торрент-файл (который видит больше источников), а также для того, чтобы поблагодарить релизера, вам необходимо зарегистрироваться. Если регистрироваться лень - вы можете также попробовать скачать релиз по нашим партнерским ссылкам ниже.

[underverse.su].t47571.torrent
Трекер: Зарегистрирован   [ 22.12.2014 08:22 ]  

Статус: проверено (by Паукан at 22.12.2014 08:23)
Поблагодарили: пока никто не поблагодарил...
Тип торрента: публичный - доступные источники с открытых трекеров: 
Размер: 1,46 GB (занимает 0,33 DVDR, для записи нужно 1 болванка DVDR/RW)
 
 
Похожие темы
Форум Тема Автор Торрент Отв. Посл. сооб.
Зарубежное кино [DVDRip, Low-Res HDRip, и т.д.] Моя Госпожа / My Mistress (Стивен Лэнс / Stephen Lance) [2014 г., драма, мелодрама, HDRip] MVO 90ytr90
11 | 2

0 | 419

2

21.02.2015 17:51

Зарубежное кино [DVDRip, Low-Res HDRip, и т.д.] Моя Госпожа / My Mistress (Стивен Лэнс / Stephen Lance) [2014 г., драма, мелодрама, HDRip] MVO + Original (Eng) 90ytr90
17 | 1

0 | 440

9

23.02.2015 19:39

Зарубежное кино [HDDVDRip / BDRip / WEB-DL / HDTV 1080/720р] Моя Госпожа / My Mistress (Стивен Лэнс / Stephen Lance) [2014 г., драма, мелодрама, WEB-DL 720p] MVO + Original (Eng) 90ytr90
3 | 0

0 | 422

1

21.02.2015 08:35

Зарубежное кино [HDDVDRip / BDRip / WEB-DL / HDTV 1080/720р] Моя Госпожа / My Mistress (Стивен Лэнс / Stephen Lance) [2014 г., драма, мелодрама, BDRip 720p] MVO + Original (Eng) 90ytr90
0 | 0

0 | 415

2

21.02.2015 17:56


Яндекс.Метрика powered by Sphinx


В Н И М А Н И Е
Сайт не распространяет и не хранит электронные версии произведений, а лишь бесплатно и без коммерческой выгоды (не требуя взамен платы,
SMS и т.д.) предоставляет доступ к создаваемому пользователями каталогу ссылок на торрент-файлы, которые содержат только списки хеш-сумм.
Убедительная просьба с жалобами обращаться напрямую к пользователю, разместившему торрент файл.

Вверх